  0
SECTION
  2
HEADER
  9
$ACADVER
  1
AC1018
  9
$ACADMAINTVER
 70
     0
  9
$DWGCODEPAGE
  3
ANSI_932
  9
$INSBASE
 10
0.0
 20
0.0
 30
0.0
  9
$EXTMIN
 10
0.0
 20
0.0
 30
0.0
  9
$EXTMAX
 10
420.0
 20
297.0
 30
0.0
  9
$LIMMIN
 10
0.0
 20
0.0
  9
$LIMMAX
 10
420.0
 20
297.0
  9
$ORTHOMODE
 70
     0
  9
$REGENMODE
 70
     1
  9
$FILLMODE
 70
     1
  9
$QTEXTMODE
 70
     0
  9
$MIRRTEXT
 70
     1
  9
$LTSCALE
 40
0.25
  9
$ATTMODE
 70
     1
  9
$TEXTSIZE
 40
5.0
  9
$TRACEWID
 40
0.05
  9
$TEXTSTYLE
  7
Standard
  9
$CLAYER
  8
0
  9
$CELTYPE
  6
ByLayer
  9
$CECOLOR
 62
   256
  9
$CELTSCALE
 40
1.0
  9
$DISPSILH
 70
     0
  9
$DIMSCALE
 40
1.0
  9
$DIMASZ
 40
4.0
  9
$DIMEXO
 40
2.0
  9
$DIMDLI
 40
10.0
  9
$DIMRND
 40
0.0
  9
$DIMDLE
 40
0.0
  9
$DIMEXE
 40
2.0
  9
$DIMTP
 40
0.0
  9
$DIMTM
 40
0.0
  9
$DIMTXT
 40
4.0
  9
$DIMCEN
 40
0.09
  9
$DIMTSZ
 40
0.0
  9
$DIMTOL
 70
     0
  9
$DIMLIM
 70
     0
  9
$DIMTIH
 70
     0
  9
$DIMTOH
 70
     0
  9
$DIMSE1
 70
     0
  9
$DIMSE2
 70
     0
  9
$DIMTAD
 70
     3
  9
$DIMZIN
 70
     8
  9
$DIMBLK
  1

  9
$DIMASO
 70
     1
  9
$DIMSHO
 70
     1
  9
$DIMPOST
  1

  9
$DIMAPOST
  1

  9
$DIMALT
 70
     0
  9
$DIMALTD
 70
     2
  9
$DIMALTF
 40
25.4
  9
$DIMLFAC
 40
1.0
  9
$DIMTOFL
 70
     1
  9
$DIMTVP
 40
0.7
  9
$DIMTIX
 70
     0
  9
$DIMSOXD
 70
     0
  9
$DIMSAH
 70
     0
  9
$DIMBLK1
  1

  9
$DIMBLK2
  1

  9
$DIMSTYLE
  2
Standard
  9
$DIMCLRD
 70
     0
  9
$DIMCLRE
 70
     0
  9
$DIMCLRT
 70
     0
  9
$DIMTFAC
 40
0.5
  9
$DIMGAP
 40
0.09
  9
$DIMJUST
 70
     0
  9
$DIMSD1
 70
     0
  9
$DIMSD2
 70
     0
  9
$DIMTOLJ
 70
     1
  9
$DIMTZIN
 70
     8
  9
$DIMALTZ
 70
     0
  9
$DIMALTTZ
 70
     0
  9
$DIMUPT
 70
     1
  9
$DIMDEC
 70
     2
  9
$DIMTDEC
 70
     4
  9
$DIMALTU
 70
     2
  9
$DIMALTTD
 70
     2
  9
$DIMTXSTY
  7
Standard
  9
$DIMAUNIT
 70
     0
  9
$DIMADEC
 70
     0
  9
$DIMALTRND
 40
0.0
  9
$DIMAZIN
 70
     0
  9
$DIMDSEP
 70
    46
  9
$DIMATFIT
 70
     2
  9
$DIMFRAC
 70
     0
  9
$DIMLDRBLK
  1

  9
$DIMLUNIT
 70
     2
  9
$DIMLWD
 70
    -2
  9
$DIMLWE
 70
    -2
  9
$DIMTMOVE
 70
     2
  9
$LUNITS
 70
     2
  9
$LUPREC
 70
     4
  9
$SKETCHINC
 40
0.1
  9
$FILLETRAD
 40
0.5
  9
$AUNITS
 70
     0
  9
$AUPREC
 70
     0
  9
$MENU
  1
.
  9
$ELEVATION
 40
0.0
  9
$PELEVATION
 40
0.0
  9
$THICKNESS
 40
0.0
  9
$LIMCHECK
 70
     0
  9
$CHAMFERA
 40
0.5
  9
$CHAMFERB
 40
0.5
  9
$CHAMFERC
 40
1.0
  9
$CHAMFERD
 40
0.0
  9
$SKPOLY
 70
     0
  9
$TDCREATE
 40
2455401.784780093
  9
$TDUCREATE
 40
2455401.409780093
  9
$TDUPDATE
 40
2455401.784780093
  9
$TDUUPDATE
 40
2455401.409780093
  9
$TDINDWG
 40
0.0000000116
  9
$TDUSRTIMER
 40
0.0000000116
  9
$USRTIMER
 70
     1
  9
$ANGBASE
 50
0.0
  9
$ANGDIR
 70
     0
  9
$PDMODE
 70
     0
  9
$PDSIZE
 40
0.0
  9
$PLINEWID
 40
0.0
  9
$SPLFRAME
 70
     0
  9
$SPLINETYPE
 70
     6
  9
$SPLINESEGS
 70
     8
  9
$HANDSEED
  5
21F
  9
$SURFTAB1
 70
     6
  9
$SURFTAB2
 70
     6
  9
$SURFTYPE
 70
     6
  9
$SURFU
 70
     6
  9
$SURFV
 70
     6
  9
$UCSBASE
  2

  9
$UCSNAME
  2

  9
$UCSORG
 10
0.0
 20
0.0
 30
0.0
  9
$UCSXDIR
 10
1.0
 20
0.0
 30
0.0
  9
$UCSYDIR
 10
0.0
 20
1.0
 30
0.0
  9
$UCSORTHOREF
  2

  9
$UCSORTHOVIEW
 70
     0
  9
$UCSORGTOP
 10
0.0
 20
0.0
 30
0.0
  9
$UCSORGBOTTOM
 10
0.0
 20
0.0
 30
0.0
  9
$UCSORGLEFT
 10
0.0
 20
0.0
 30
0.0
  9
$UCSORGRIGHT
 10
0.0
 20
0.0
 30
0.0
  9
$UCSORGFRONT
 10
0.0
 20
0.0
 30
0.0
  9
$UCSORGBACK
 10
0.0
 20
0.0
 30
0.0
  9
$PUCSBASE
  2

  9
$PUCSNAME
  2

  9
$PUCSORG
 10
0.0
 20
0.0
 30
0.0
  9
$PUCSXDIR
 10
1.0
 20
0.0
 30
0.0
  9
$PUCSYDIR
 10
0.0
 20
1.0
 30
0.0
  9
$PUCSORTHOREF
  2

  9
$PUCSORTHOVIEW
 70
     0
  9
$PUCSORGTOP
 10
0.0
 20
0.0
 30
0.0
  9
$PUCSORGBOTTOM
 10
0.0
 20
0.0
 30
0.0
  9
$PUCSORGLEFT
 10
0.0
 20
0.0
 30
0.0
  9
$PUCSORGRIGHT
 10
0.0
 20
0.0
 30
0.0
  9
$PUCSORGFRONT
 10
0.0
 20
0.0
 30
0.0
  9
$PUCSORGBACK
 10
0.0
 20
0.0
 30
0.0
  9
$USERI1
 70
     0
  9
$USERI2
 70
     0
  9
$USERI3
 70
     0
  9
$USERI4
 70
     0
  9
$USERI5
 70
     0
  9
$USERR1
 40
0.0
  9
$USERR2
 40
0.0
  9
$USERR3
 40
0.0
  9
$USERR4
 40
0.0
  9
$USERR5
 40
0.0
  9
$WORLDVIEW
 70
     1
  9
$SHADEDGE
 70
     3
  9
$SHADEDIF
 70
    70
  9
$TILEMODE
 70
     1
  9
$MAXACTVP
 70
    64
  9
$PINSBASE
 10
0.0
 20
0.0
 30
0.0
  9
$PLIMCHECK
 70
     0
  9
$PEXTMIN
 10
0.0
 20
0.0
 30
0.0
  9
$PEXTMAX
 10
420.0
 20
297.0
 30
0.0
  9
$PLIMMIN
 10
0.0
 20
0.0
  9
$PLIMMAX
 10
420.0
 20
297.0
  9
$UNITMODE
 70
     0
  9
$VISRETAIN
 70
     1
  9
$PLINEGEN
 70
     0
  9
$PSLTSCALE
 70
     1
  9
$TREEDEPTH
 70
  3020
  9
$CMLSTYLE
  2
Standard
  9
$CMLJUST
 70
     0
  9
$CMLSCALE
 40
1.0
  9
$PROXYGRAPHICS
 70
     1
  9
$MEASUREMENT
 70
     0
  9
$CELWEIGHT
370
    -1
  9
$ENDCAPS
280
     0
  9
$JOINSTYLE
280
     0
  9
$LWDISPLAY
290
     0
  9
$INSUNITS
 70
     1
  9
$HYPERLINKBASE
  1

  9
$STYLESHEET
  1

  9
$XEDIT
290
     1
  9
$CEPSNTYPE
380
     0
  9
$PSTYLEMODE
290
     1
  9
$FINGERPRINTGUID
  2
{2E650A85-1207-410B-BFF5-926387894700}
  9
$VERSIONGUID
  2
{FAEB1C32-E019-11D5-929B-00C0DF256EC4}
  9
$EXTNAMES
290
     1
  9
$PSVPSCALE
 40
0.0
  9
$OLESTARTUP
290
     0
  9
$SORTENTS
280
   127
  9
$INDEXCTL
280
     0
  9
$HIDETEXT
280
     1
  9
$XCLIPFRAME
290
     0
  9
$HALOGAP
280
     0
  9
$OBSCOLOR
 70
   257
  9
$OBSLTYPE
280
     0
  9
$INTERSECTIONDISPLAY
280
     0
  9
$INTERSECTIONCOLOR
 70
   257
  9
$DIMASSOC
280
     1
  9
$PROJECTNAME
  1

  0
ENDSEC
  0
SECTION
  2
CLASSES
  0
CLASS
  1
ACDBDICTIONARYWDFLT
  2
AcDbDictionaryWithDefault
  3
ObjectDBX Classes
 90
        0
 91
        3
280
     0
281
     0
  0
ENDSEC
  0
SECTION
  2
TABLES
  0
TABLE
  2
VPORT
  5
8
330
0
100
AcDbSymbolTable
 70
     1
  0
VPORT
  5
29
330
8
100
AcDbSymbolTableRecord
100
AcDbViewportTableRecord
  2
*Active
 70
     0
 10
0.0
 20
0.0
 11
1.0
 21
1.0
 12
10.42990654205607
 22
4.5
 13
0.0
 23
0.0
 14
0.5
 24
0.5
 15
0.5
 25
0.5
 16
0.0
 26
0.0
 36
1.0
 17
0.0
 27
0.0
 37
0.0
 40
9.0
 41
1.972972972850329
 42
50.0
 43
0.0
 44
0.0
 50
0.0
 51
0.0
 71
     0
 72
   100
 73
     1
 74
     3
 75
     0
 76
     0
 77
     0
 78
     0
281
     0
 65
     1
110
0.0
120
0.0
130
0.0
111
1.0
121
0.0
131
0.0
112
0.0
122
1.0
132
0.0
 79
     0
146
0.0
  0
ENDTAB
  0
TABLE
  2
LTYPE
  5
5
330
0
100
AcDbSymbolTable
 70
    31
  0
LTYPE
  5
14
330
5
100
AcDbSymbolTableRecord
100
AcDbLinetypeTableRecord
  2
ByBlock
 70
     0
  3

 72
    65
 73
     0
 40
0.0
  0
LTYPE
  5
15
330
5
100
AcDbSymbolTableRecord
100
AcDbLinetypeTableRecord
  2
ByLayer
 70
     0
  3

 72
    65
 73
     0
 40
0.0
  0
LTYPE
  5
16
330
5
100
AcDbSymbolTableRecord
100
AcDbLinetypeTableRecord
  2
Continuous
 70
     0
  3
Solid line
 72
    65
 73
     0
 40
0.0
  0
LTYPE
  5
68
330
5
100
AcDbSymbolTableRecord
100
AcDbLinetypeTableRecord
  2
DOT_PATTERN
 70
     0
  3
DOT_PATTERN
 72
    65
 73
     2
 40
2.0
 49
0.6
 74
     0
 49
-1.4
 74
     0
  0
LTYPE
  5
69
330
5
100
AcDbSymbolTableRecord
100
AcDbLinetypeTableRecord
  2
SDH_PATTERN
 70
     0
  3
SDH_PATTERN
 72
    65
 73
     2
 40
2.0
 49
1.4
 74
     0
 49
-0.6
 74
     0
  0
LTYPE
  5
6A
330
5
100
AcDbSymbolTableRecord
100
AcDbLinetypeTableRecord
  2
LDH_PATTERN
 70
     0
  3
LDH_PATTERN
 72
    65
 73
     2
 40
3.0
 49
2.0
 74
     0
 49
-1.0
 74
     0
  0
LTYPE
  5
6B
330
5
100
AcDbSymbolTableRecord
100
AcDbLinetypeTableRecord
  2
S1C_PATTERN
 70
     0
  3
S1C_PATTERN
 72
    65
 73
     4
 40
20.0
 49
17.4
 74
     0
 49
-0.8
 74
     0
 49
1.0
 74
     0
 49
-0.8
 74
     0
  0
LTYPE
  5
6C
330
5
100
AcDbSymbolTableRecord
100
AcDbLinetypeTableRecord
  2
L1C_PATTERN
 70
     0
  3
L1C_PATTERN
 72
    65
 73
     4
 40
40.0
 49
36.8
 74
     0
 49
-1.0
 74
     0
 49
1.2
 74
     0
 49
-1.0
 74
     0
  0
LTYPE
  5
6D
330
5
100
AcDbSymbolTableRecord
100
AcDbLinetypeTableRecord
  2
S2C_PATTERN
 70
     0
  3
S2C_PATTERN
 72
    65
 73
     6
 40
20.0
 49
15.6
 74
     0
 49
-0.8
 74
     0
 49
1.0
 74
     0
 49
-0.8
 74
     0
 49
1.0
 74
     0
 49
-0.8
 74
     0
  0
LTYPE
  5
6E
330
5
100
AcDbSymbolTableRecord
100
AcDbLinetypeTableRecord
  2
L2C_PATTERN
 70
     0
  3
L2C_PATTERN
 72
    65
 73
     6
 40
40.00000000000001
 49
34.6
 74
     0
 49
-1.0
 74
     0
 49
1.2
 74
     0
 49
-1.0
 74
     0
 49
1.2
 74
     0
 49
-1.0
 74
     0
  0
LTYPE
  5
6F
330
5
100
AcDbSymbolTableRecord
100
AcDbLinetypeTableRecord
  2
S3C_PATTERN
 70
     0
  3
S3C_PATTERN
 72
    65
 73
     8
 40
12.75
 49
6.0
 74
     0
 49
-1.5
 74
     0
 49
0.25
 74
     0
 49
-1.5
 74
     0
 49
0.25
 74
     0
 49
-1.5
 74
     0
 49
0.25
 74
     0
 49
-1.5
 74
     0
  0
LTYPE
  5
70
330
5
100
AcDbSymbolTableRecord
100
AcDbLinetypeTableRecord
  2
L3C_PATTERN
 70
     0
  3
L3C_PATTERN
 72
    65
 73
     8
 40
18.75
 49
12.0
 74
     0
 49
-1.5
 74
     0
 49
0.25
 74
     0
 49
-1.5
 74
     0
 49
0.25
 74
     0
 49
-1.5
 74
     0
 49
0.25
 74
     0
 49
-1.5
 74
     0
  0
LTYPE
  5
71
330
5
100
AcDbSymbolTableRecord
100
AcDbLinetypeTableRecord
  2
N1C_PATTERN
 70
     0
  3
N1C_PATTERN
 72
    65
 73
     4
 40
18.5
 49
12.0
 74
     0
 49
-1.5
 74
     0
 49
3.5
 74
     0
 49
-1.5
 74
     0
  0
LTYPE
  5
72
330
5
100
AcDbSymbolTableRecord
100
AcDbLinetypeTableRecord
  2
N2C_PATTERN
 70
     0
  3
N2C_PATTERN
 72
    65
 73
     6
 40
23.5
 49
12.0
 74
     0
 49
-1.5
 74
     0
 49
3.5
 74
     0
 49
-1.5
 74
     0
 49
3.5
 74
     0
 49
-1.5
 74
     0
  0
LTYPE
  5
73
330
5
100
AcDbSymbolTableRecord
100
AcDbLinetypeTableRecord
  2
S12C_PATTERN
 70
     0
  3
S12C_PATTERN
 72
    65
 73
     6
 40
16.75
 49
6.0
 74
     0
 49
-1.5
 74
     0
 49
6.0
 74
     0
 49
-1.5
 74
     0
 49
0.25
 74
     0
 49
-1.5
 74
     0
  0
LTYPE
  5
74
330
5
100
AcDbSymbolTableRecord
100
AcDbLinetypeTableRecord
  2
S22C_PATTERN
 70
     0
  3
S22C_PATTERN
 72
    65
 73
     8
 40
18.5
 49
6.0
 74
     0
 49
-1.5
 74
     0
 49
6.0
 74
     0
 49
-1.5
 74
     0
 49
0.25
 74
     0
 49
-1.5
 74
     0
 49
0.25
 74
     0
 49
-1.5
 74
     0
  0
LTYPE
  5
75
330
5
100
AcDbSymbolTableRecord
100
AcDbLinetypeTableRecord
  2
S32C_PATTERN
 70
     0
  3
S32C_PATTERN
 72
    65
 73
    10
 40
20.25
 49
6.0
 74
     0
 49
-1.5
 74
     0
 49
6.0
 74
     0
 49
-1.5
 74
     0
 49
0.25
 74
     0
 49
-1.5
 74
     0
 49
0.25
 74
     0
 49
-1.5
 74
     0
 49
0.25
 74
     0
 49
-1.5
 74
     0
  0
LTYPE
  5
76
330
5
100
AcDbSymbolTableRecord
100
AcDbLinetypeTableRecord
  2
USER_PATTERN1
 70
     0
  3
USER_PATTERN1
 72
    65
 73
     0
 40
0.0
  0
LTYPE
  5
77
330
5
100
AcDbSymbolTableRecord
100
AcDbLinetypeTableRecord
  2
USER_PATTERN2
 70
     0
  3
USER_PATTERN2
 72
    65
 73
     0
 40
0.0
  0
LTYPE
  5
78
330
5
100
AcDbSymbolTableRecord
100
AcDbLinetypeTableRecord
  2
USER_PATTERN3
 70
     0
  3
USER_PATTERN3
 72
    65
 73
     0
 40
0.0
  0
LTYPE
  5
79
330
5
100
AcDbSymbolTableRecord
100
AcDbLinetypeTableRecord
  2
USER_PATTERN4
 70
     0
  3
USER_PATTERN4
 72
    65
 73
     0
 40
0.0
  0
LTYPE
  5
7A
330
5
100
AcDbSymbolTableRecord
100
AcDbLinetypeTableRecord
  2
USER_PATTERN5
 70
     0
  3
USER_PATTERN5
 72
    65
 73
     0
 40
0.0
  0
LTYPE
  5
7B
330
5
100
AcDbSymbolTableRecord
100
AcDbLinetypeTableRecord
  2
USER_PATTERN6
 70
     0
  3
USER_PATTERN6
 72
    65
 73
     0
 40
0.0
  0
LTYPE
  5
7C
330
5
100
AcDbSymbolTableRecord
100
AcDbLinetypeTableRecord
  2
USER_PATTERN7
 70
     0
  3
USER_PATTERN7
 72
    65
 73
     0
 40
0.0
  0
LTYPE
  5
7D
330
5
100
AcDbSymbolTableRecord
100
AcDbLinetypeTableRecord
  2
USER_PATTERN8
 70
     0
  3
USER_PATTERN8
 72
    65
 73
     0
 40
0.0
  0
LTYPE
  5
7E
330
5
100
AcDbSymbolTableRecord
100
AcDbLinetypeTableRecord
  2
USER_PATTERN9
 70
     0
  3
USER_PATTERN9
 72
    65
 73
     0
 40
0.0
  0
LTYPE
  5
7F
330
5
100
AcDbSymbolTableRecord
100
AcDbLinetypeTableRecord
  2
USER_PATTERN10
 70
     0
  3
USER_PATTERN10
 72
    65
 73
     0
 40
0.0
  0
LTYPE
  5
80
330
5
100
AcDbSymbolTableRecord
100
AcDbLinetypeTableRecord
  2
USER_PATTERN11
 70
     0
  3
USER_PATTERN11
 72
    65
 73
     0
 40
0.0
  0
LTYPE
  5
81
330
5
100
AcDbSymbolTableRecord
100
AcDbLinetypeTableRecord
  2
USER_PATTERN12
 70
     0
  3
USER_PATTERN12
 72
    65
 73
     0
 40
0.0
  0
LTYPE
  5
82
330
5
100
AcDbSymbolTableRecord
100
AcDbLinetypeTableRecord
  2
USER_PATTERN13
 70
     0
  3
USER_PATTERN13
 72
    65
 73
     0
 40
0.0
  0
LTYPE
  5
83
330
5
100
AcDbSymbolTableRecord
100
AcDbLinetypeTableRecord
  2
USER_PATTERN14
 70
     0
  3
USER_PATTERN14
 72
    65
 73
     0
 40
0.0
  0
LTYPE
  5
84
330
5
100
AcDbSymbolTableRecord
100
AcDbLinetypeTableRecord
  2
USER_PATTERN15
 70
     0
  3
USER_PATTERN15
 72
    65
 73
     0
 40
0.0
  0
LTYPE
  5
85
330
5
100
AcDbSymbolTableRecord
100
AcDbLinetypeTableRecord
  2
USER_PATTERN16
 70
     0
  3
USER_PATTERN16
 72
    65
 73
     0
 40
0.0
  0
ENDTAB
  0
TABLE
  2
LAYER
  5
2
330
0
100
AcDbSymbolTable
 70
    29
  0
LAYER
  5
10
330
2
100
AcDbSymbolTableRecord
100
AcDbLayerTableRecord
  2
0
 70
     0
 62
     7
  6
Continuous
370
    -3
390
F
  0
LAYER
  5
86
330
2
100
AcDbSymbolTableRecord
100
AcDbLayerTableRecord
  2
1
 70
     0
 62
     7
  6
Continuous
370
    -3
390
F
  0
LAYER
  5
87
330
2
100
AcDbSymbolTableRecord
100
AcDbLayerTableRecord
  2
2
 70
     0
 62
   132
  6
Continuous
370
    -3
390
F
  0
LAYER
  5
88
330
2
100
AcDbSymbolTableRecord
100
AcDbLayerTableRecord
  2
3
 70
     0
 62
   212
  6
Continuous
370
    -3
390
F
  0
LAYER
  5
89
330
2
100
AcDbSymbolTableRecord
100
AcDbLayerTableRecord
  2
4
 70
     0
 62
    52
  6
Continuous
370
    -3
390
F
  0
LAYER
  5
8A
330
2
100
AcDbSymbolTableRecord
100
AcDbLayerTableRecord
  2
5
 70
     0
 62
    92
  6
Continuous
370
    -3
390
F
  0
LAYER
  5
8B
330
2
100
AcDbSymbolTableRecord
100
AcDbLayerTableRecord
  2
6
 70
     0
 62
    12
  6
Continuous
370
    -3
390
F
  0
LAYER
  5
8C
330
2
100
AcDbSymbolTableRecord
100
AcDbLayerTableRecord
  2
7
 70
     0
 62
     4
  6
Continuous
370
    -3
390
F
  0
LAYER
  5
8D
330
2
100
AcDbSymbolTableRecord
100
AcDbLayerTableRecord
  2
8
 70
     0
 62
     6
  6
Continuous
370
    -3
390
F
  0
LAYER
  5
8E
330
2
100
AcDbSymbolTableRecord
100
AcDbLayerTableRecord
  2
9
 70
     0
 62
     2
  6
Continuous
370
    -3
390
F
  0
LAYER
  5
8F
330
2
100
AcDbSymbolTableRecord
100
AcDbLayerTableRecord
  2
10
 70
     0
 62
     3
  6
Continuous
370
    -3
390
F
  0
LAYER
  5
90
330
2
100
AcDbSymbolTableRecord
100
AcDbLayerTableRecord
  2
11
 70
     0
 62
   250
  6
Continuous
370
    -3
390
F
  0
LAYER
  5
91
330
2
100
AcDbSymbolTableRecord
100
AcDbLayerTableRecord
  2
12
 70
     0
 62
   132
  6
Continuous
370
    -3
390
F
  0
LAYER
  5
92
330
2
100
AcDbSymbolTableRecord
100
AcDbLayerTableRecord
  2
13
 70
     0
 62
   212
  6
Continuous
370
    -3
390
F
  0
LAYER
  5
93
330
2
100
AcDbSymbolTableRecord
100
AcDbLayerTableRecord
  2
14
 70
     0
 62
    52
  6
Continuous
370
    -3
390
F
  0
LAYER
  5
94
330
2
100
AcDbSymbolTableRecord
100
AcDbLayerTableRecord
  2
15
 70
     0
 62
    92
  6
Continuous
370
    -3
390
F
  0
LAYER
  5
95
330
2
100
AcDbSymbolTableRecord
100
AcDbLayerTableRecord
  2
16
 70
     0
 62
    12
  6
Continuous
370
    -3
390
F
  0
LAYER
  5
96
330
2
100
AcDbSymbolTableRecord
100
AcDbLayerTableRecord
  2
17
 70
     0
 62
   132
  6
Continuous
370
    -3
390
F
  0
LAYER
  5
97
330
2
100
AcDbSymbolTableRecord
100
AcDbLayerTableRecord
  2
18
 70
     0
 62
   212
  6
Continuous
370
    -3
390
F
  0
LAYER
  5
98
330
2
100
AcDbSymbolTableRecord
100
AcDbLayerTableRecord
  2
19
 70
     0
 62
    52
  6
Continuous
370
    -3
390
F
  0
LAYER
  5
99
330
2
100
AcDbSymbolTableRecord
100
AcDbLayerTableRecord
  2
20
 70
     0
 62
    92
  6
Continuous
370
    -3
390
F
  0
LAYER
  5
9A
330
2
100
AcDbSymbolTableRecord
100
AcDbLayerTableRecord
  2
21
 70
     0
 62
     5
  6
Continuous
370
    -3
390
F
  0
LAYER
  5
9B
330
2
100
AcDbSymbolTableRecord
100
AcDbLayerTableRecord
  2
22
 70
     0
 62
     7
  6
Continuous
370
    -3
390
F
  0
LAYER
  5
9C
330
2
100
AcDbSymbolTableRecord
100
AcDbLayerTableRecord
  2
25
 70
     0
 62
     7
  6
Continuous
370
    -3
390
F
  0
LAYER
  5
9D
330
2
100
AcDbSymbolTableRecord
100
AcDbLayerTableRecord
  2
29
 70
     0
 62
     7
  6
Continuous
370
    -3
390
F
  0
LAYER
  5
9E
330
2
100
AcDbSymbolTableRecord
100
AcDbLayerTableRecord
  2
30
 70
     0
 62
     7
  6
Continuous
370
    -3
390
F
  0
LAYER
  5
9F
330
2
100
AcDbSymbolTableRecord
100
AcDbLayerTableRecord
  2
37
 70
     0
 62
     7
  6
Continuous
370
    -3
390
F
  0
LAYER
  5
A0
330
2
100
AcDbSymbolTableRecord
100
AcDbLayerTableRecord
  2
38
 70
     0
 62
     7
  6
Continuous
370
    -3
390
F
  0
LAYER
  5
A1
330
2
100
AcDbSymbolTableRecord
100
AcDbLayerTableRecord
  2
43
 70
     0
 62
     7
  6
Continuous
370
    -3
390
F
  0
ENDTAB
  0
TABLE
  2
STYLE
  5
3
330
0
100
AcDbSymbolTable
 70
     2
  0
STYLE
  5
11
330
3
100
AcDbSymbolTableRecord
100
AcDbTextStyleTableRecord
  2
Standard
 70
     0
 40
0.0
 41
1.0
 50
0.0
 71
     0
 42
0.2
  3
txt
  4
bigfont
  0
STYLE
  5
2C
330
3
100
AcDbSymbolTableRecord
100
AcDbTextStyleTableRecord
  2
T_STANDARD
 70
     4
 40
10.0
 41
1.0
 50
0.0
 71
     0
 42
10.0
  3
txt
  4
bigfont
  0
ENDTAB
  0
TABLE
  2
VIEW
  5
6
330
0
100
AcDbSymbolTable
 70
     0
  0
ENDTAB
  0
TABLE
  2
UCS
  5
7
330
0
100
AcDbSymbolTable
 70
     0
  0
ENDTAB
  0
TABLE
  2
APPID
  5
9
330
0
100
AcDbSymbolTable
 70
     2
  0
APPID
  5
12
330
9
100
AcDbSymbolTableRecord
100
AcDbRegAppTableRecord
  2
ACAD
 70
     0
  0
APPID
  5
2B
330
9
100
AcDbSymbolTableRecord
100
AcDbRegAppTableRecord
  2
ODA
 70
     0
  0
ENDTAB
  0
TABLE
  2
DIMSTYLE
  5
A
330
0
100
AcDbSymbolTable
 70
     1
100
AcDbDimStyleTable
  0
DIMSTYLE
105
27
102
{ACAD_REACTORS
330
FB
330
108
330
1B7
102
}
330
A
100
AcDbSymbolTableRecord
100
AcDbDimStyleTableRecord
  2
Standard
 70
     0
340
11
  0
ENDTAB
  0
TABLE
  2
BLOCK_RECORD
  5
1
330
0
100
AcDbSymbolTable
 70
    21
  0
BLOCK_RECORD
  5
1F
330
1
100
AcDbSymbolTableRecord
100
AcDbBlockTableRecord
  2
*Model_Space
340
22
  0
BLOCK_RECORD
  5
1B
330
1
100
AcDbSymbolTableRecord
100
AcDbBlockTableRecord
  2
*Paper_Space
340
1E
  0
BLOCK_RECORD
  5
23
330
1
100
AcDbSymbolTableRecord
100
AcDbBlockTableRecord
  2
*Paper_Space0
340
26
  0
BLOCK_RECORD
  5
2D
330
1
100
AcDbSymbolTableRecord
100
AcDbBlockTableRecord
  2
_ORIGIN
340
0
  0
BLOCK_RECORD
  5
32
330
1
100
AcDbSymbolTableRecord
100
AcDbBlockTableRecord
  2
_DOTBLANK
340
0
  0
BLOCK_RECORD
  5
37
330
1
100
AcDbSymbolTableRecord
100
AcDbBlockTableRecord
  2
_DOT
340
0
  0
BLOCK_RECORD
  5
3C
330
1
100
AcDbSymbolTableRecord
100
AcDbBlockTableRecord
  2
_OPEN
340
0
  0
BLOCK_RECORD
  5
42
330
1
100
AcDbSymbolTableRecord
100
AcDbBlockTableRecord
  2
_CLOSED
340
0
  0
BLOCK_RECORD
  5
49
330
1
100
AcDbSymbolTableRecord
100
AcDbBlockTableRecord
  2
_CLOSEDBLANK
340
0
  0
BLOCK_RECORD
  5
4F
330
1
100
AcDbSymbolTableRecord
100
AcDbBlockTableRecord
  2
_BOXBLANK
340
0
  0
BLOCK_RECORD
  5
57
330
1
100
AcDbSymbolTableRecord
100
AcDbBlockTableRecord
  2
_BOXFILLED
340
0
  0
BLOCK_RECORD
  5
5C
330
1
100
AcDbSymbolTableRecord
100
AcDbBlockTableRecord
  2
_INTEGRAL
340
0
  0
BLOCK_RECORD
  5
61
330
1
100
AcDbSymbolTableRecord
100
AcDbBlockTableRecord
  2
_OBLIQUE
340
0
  0
BLOCK_RECORD
  5
65
330
1
100
AcDbSymbolTableRecord
100
AcDbBlockTableRecord
  2
_NONE
340
0
  0
BLOCK_RECORD
  5
F0
330
1
100
AcDbSymbolTableRecord
100
AcDbBlockTableRecord
  2
Dim1
340
0
  0
BLOCK_RECORD
  5
FD
330
1
100
AcDbSymbolTableRecord
100
AcDbBlockTableRecord
  2
Dim2
340
0
  0
BLOCK_RECORD
  5
121
330
1
100
AcDbSymbolTableRecord
100
AcDbBlockTableRecord
  2
*G14
340
0
102
{BLKREFS
331
13D
102
}
  0
BLOCK_RECORD
  5
13E
330
1
100
AcDbSymbolTableRecord
100
AcDbBlockTableRecord
  2
*G15
340
0
102
{BLKREFS
331
145
102
}
  0
BLOCK_RECORD
  5
147
330
1
100
AcDbSymbolTableRecord
100
AcDbBlockTableRecord
  2
*G16
340
0
102
{BLKREFS
331
1A2
102
}
  0
BLOCK_RECORD
  5
156
330
1
100
AcDbSymbolTableRecord
100
AcDbBlockTableRecord
  2
*G17
340
0
102
{BLKREFS
331
169
102
}
  0
BLOCK_RECORD
  5
16A
330
1
100
AcDbSymbolTableRecord
100
AcDbBlockTableRecord
  2
*G18
340
0
102
{BLKREFS
331
17D
102
}
  0
BLOCK_RECORD
  5
17E
330
1
100
AcDbSymbolTableRecord
100
AcDbBlockTableRecord
  2
*G19
340
0
102
{BLKREFS
331
1A1
102
}
  0
BLOCK_RECORD
  5
1AC
330
1
100
AcDbSymbolTableRecord
100
AcDbBlockTableRecord
  2
Dim3
340
0
  0
ENDTAB
  0
ENDSEC
  0
SECTION
  2
BLOCKS
  0
BLOCK
  5
20
330
1F
100
AcDbEntity
  8
0
100
AcDbBlockBegin
  2
*Model_Space
 70
     0
 71
     0
 10
0.0
 20
0.0
 30
0.0
  3
*Model_Space
  1

  0
ENDBLK
  5
21
330
1F
100
AcDbEntity
  8
0
100
AcDbBlockEnd
  0
BLOCK
  5
1C
330
1B
100
AcDbEntity
 67
     1
  8
0
100
AcDbBlockBegin
  2
*Paper_Space
 70
     0
 71
     0
 10
0.0
 20
0.0
 30
0.0
  3
*Paper_Space
  1

  0
ENDBLK
  5
1D
330
1B
100
AcDbEntity
 67
     1
  8
0
100
AcDbBlockEnd
  0
BLOCK
  5
24
330
23
100
AcDbEntity
  8
0
100
AcDbBlockBegin
  2
*Paper_Space0
 70
     0
 71
     0
 10
0.0
 20
0.0
 30
0.0
  3
*Paper_Space0
  1

  0
ENDBLK
  5
25
330
23
100
AcDbEntity
  8
0
100
AcDbBlockEnd
  0
BLOCK
  5
30
330
2D
100
AcDbEntity
  8
0
100
AcDbBlockBegin
  2
_ORIGIN
 70
     0
 71
     0
 10
0.0
 20
0.0
 30
0.0
  3
_ORIGIN
  1

  0
CIRCLE
  5
2E
330
2D
100
AcDbEntity
  8
0
100
AcDbCircle
 10
0.0
 20
0.0
 30
0.0
 40
0.5
  0
LINE
  5
2F
330
2D
100
AcDbEntity
  8
0
100
AcDbLine
 10
0.0
 20
0.0
 30
0.0
 11
-1.0
 21
0.0
 31
0.0
  0
ENDBLK
  5
31
330
2D
100
AcDbEntity
  8
0
100
AcDbBlockEnd
  0
BLOCK
  5
35
330
32
100
AcDbEntity
  8
0
100
AcDbBlockBegin
  2
_DOTBLANK
 70
     0
 71
     0
 10
0.0
 20
0.0
 30
0.0
  3
_DOTBLANK
  1

  0
CIRCLE
  5
33
330
32
100
AcDbEntity
  8
0
100
AcDbCircle
 10
0.0
 20
0.0
 30
0.0
 40
0.5
  0
LINE
  5
34
330
32
100
AcDbEntity
  8
0
100
AcDbLine
 10
-0.5
 20
0.0
 30
0.0
 11
-1.0
 21
0.0
 31
0.0
  0
ENDBLK
  5
36
330
32
100
AcDbEntity
  8
0
100
AcDbBlockEnd
  0
BLOCK
  5
3A
330
37
100
AcDbEntity
  8
0
100
AcDbBlockBegin
  2
_DOT
 70
     0
 71
     0
 10
0.0
 20
0.0
 30
0.0
  3
_DOT
  1

  0
LWPOLYLINE
  5
38
330
37
100
AcDbEntity
  8
0
100
AcDbPolyline
 90
        2
 70
     1
 43
0.5
 10
-0.25
 20
0.0
 42
1.0
 10
0.25
 20
0.0
 42
1.0
  0
LINE
  5
39
330
37
100
AcDbEntity
  8
0
100
AcDbLine
 10
-0.5
 20
0.0
 30
0.0
 11
-1.0
 21
0.0
 31
0.0
  0
ENDBLK
  5
3B
330
37
100
AcDbEntity
  8
0
100
AcDbBlockEnd
  0
BLOCK
  5
40
330
3C
100
AcDbEntity
  8
0
100
AcDbBlockBegin
  2
_OPEN
 70
     0
 71
     0
 10
0.0
 20
0.0
 30
0.0
  3
_OPEN
  1

  0
LINE
  5
3D
330
3C
100
AcDbEntity
  8
0
100
AcDbLine
 10
-1.0
 20
0.1666666666666667
 30
0.0
 11
0.0
 21
0.0
 31
0.0
  0
LINE
  5
3E
330
3C
100
AcDbEntity
  8
0
100
AcDbLine
 10
-1.0
 20
-0.1666666666666667
 30
0.0
 11
0.0
 21
0.0
 31
0.0
  0
LINE
  5
3F
330
3C
100
AcDbEntity
  8
0
100
AcDbLine
 10
0.0
 20
0.0
 30
0.0
 11
-1.0
 21
0.0
 31
0.0
  0
ENDBLK
  5
41
330
3C
100
AcDbEntity
  8
0
100
AcDbBlockEnd
  0
BLOCK
  5
47
330
42
100
AcDbEntity
  8
0
100
AcDbBlockBegin
  2
_CLOSED
 70
     0
 71
     0
 10
0.0
 20
0.0
 30
0.0
  3
_CLOSED
  1

  0
LINE
  5
43
330
42
100
AcDbEntity
  8
0
100
AcDbLine
 10
-1.0
 20
0.1666666666666667
 30
0.0
 11
0.0
 21
0.0
 31
0.0
  0
LINE
  5
44
330
42
100
AcDbEntity
  8
0
100
AcDbLine
 10
0.0
 20
0.0
 30
0.0
 11
-1.0
 21
-0.1666666666666667
 31
0.0
  0
LINE
  5
45
330
42
100
AcDbEntity
  8
0
100
AcDbLine
 10
-1.0
 20
0.1666666666666667
 30
0.0
 11
-1.0
 21
-0.1666666666666667
 31
0.0
  0
LINE
  5
46
330
42
100
AcDbEntity
  8
0
100
AcDbLine
 10
0.0
 20
0.0
 30
0.0
 11
-1.0
 21
0.0
 31
0.0
  0
ENDBLK
  5
48
330
42
100
AcDbEntity
  8
0
100
AcDbBlockEnd
  0
BLOCK
  5
4D
330
49
100
AcDbEntity
  8
0
100
AcDbBlockBegin
  2
_CLOSEDBLANK
 70
     0
 71
     0
 10
0.0
 20
0.0
 30
0.0
  3
_CLOSEDBLANK
  1

  0
LINE
  5
4A
330
49
100
AcDbEntity
  8
0
100
AcDbLine
 10
-1.0
 20
0.1666666666666667
 30
0.0
 11
0.0
 21
0.0
 31
0.0
  0
LINE
  5
4B
330
49
100
AcDbEntity
  8
0
100
AcDbLine
 10
0.0
 20
0.0
 30
0.0
 11
-1.0
 21
-0.1666666666666667
 31
0.0
  0
LINE
  5
4C
330
49
100
AcDbEntity
  8
0
100
AcDbLine
 10
-1.0
 20
0.1666666666666667
 30
0.0
 11
-1.0
 21
-0.1666666666666667
 31
0.0
  0
ENDBLK
  5
4E
330
49
100
AcDbEntity
  8
0
100
AcDbBlockEnd
  0
BLOCK
  5
55
330
4F
100
AcDbEntity
  8
0
100
AcDbBlockBegin
  2
_BOXBLANK
 70
     0
 71
     0
 10
0.0
 20
0.0
 30
0.0
  3
_BOXBLANK
  1

  0
LINE
  5
50
330
4F
100
AcDbEntity
  8
0
100
AcDbLine
 10
-0.5
 20
-0.5
 30
0.0
 11
0.5
 21
-0.5
 31
0.0
  0
LINE
  5
51
330
4F
100
AcDbEntity
  8
0
100
AcDbLine
 10
0.5
 20
-0.5
 30
0.0
 11
0.5
 21
0.5
 31
0.0
  0
LINE
  5
52
330
4F
100
AcDbEntity
  8
0
100
AcDbLine
 10
0.5
 20
0.5
 30
0.0
 11
-0.5
 21
0.5
 31
0.0
  0
LINE
  5
53
330
4F
100
AcDbEntity
  8
0
100
AcDbLine
 10
-0.5
 20
0.5
 30
0.0
 11
-0.5
 21
-0.5
 31
0.0
  0
LINE
  5
54
330
4F
100
AcDbEntity
  8
0
100
AcDbLine
 10
-0.5
 20
0.0
 30
0.0
 11
-1.0
 21
0.0
 31
0.0
  0
ENDBLK
  5
56
330
4F
100
AcDbEntity
  8
0
100
AcDbBlockEnd
  0
BLOCK
  5
5A
330
57
100
AcDbEntity
  8
0
100
AcDbBlockBegin
  2
_BOXFILLED
 70
     0
 71
     0
 10
0.0
 20
0.0
 30
0.0
  3
_BOXFILLED
  1

  0
SOLID
  5
58
330
57
100
AcDbEntity
  8
0
100
AcDbTrace
 10
-0.5
 20
0.5
 30
0.0
 11
0.5
 21
0.5
 31
0.0
 12
-0.5
 22
-0.5
 32
0.0
 13
0.5
 23
-0.5
 33
0.0
  0
LINE
  5
59
330
57
100
AcDbEntity
  8
0
100
AcDbLine
 10
-0.5
 20
0.0
 30
0.0
 11
-1.0
 21
0.0
 31
0.0
  0
ENDBLK
  5
5B
330
57
100
AcDbEntity
  8
0
100
AcDbBlockEnd
  0
BLOCK
  5
5F
330
5C
100
AcDbEntity
  8
0
100
AcDbBlockBegin
  2
_INTEGRAL
 70
     0
 71
     0
 10
0.0
 20
0.0
 30
0.0
  3
_INTEGRAL
  1

  0
ARC
  5
5D
330
5C
100
AcDbEntity
  8
0
100
AcDbCircle
 10
0.444888
 20
-0.0913346
 30
0.0
 40
0.4541666
100
AcDbArc
 50
5844.169510334397
 51
9625.690958197831
  0
ARC
  5
5E
330
5C
100
AcDbEntity
  8
0
100
AcDbCircle
 10
-0.444888
 20
0.0913346
 30
0.0
 40
0.4541666
100
AcDbArc
 50
16157.40982268922
 51
19938.93127055265
  0
ENDBLK
  5
60
330
5C
100
AcDbEntity
  8
0
100
AcDbBlockEnd
  0
BLOCK
  5
63
330
61
100
AcDbEntity
  8
0
100
AcDbBlockBegin
  2
_OBLIQUE
 70
     0
 71
     0
 10
0.0
 20
0.0
 30
0.0
  3
_OBLIQUE
  1

  0
LINE
  5
62
330
61
100
AcDbEntity
  8
0
100
AcDbLine
 10
-0.5
 20
-0.5
 30
0.0
 11
0.5
 21
0.5
 31
0.0
  0
ENDBLK
  5
64
330
61
100
AcDbEntity
  8
0
100
AcDbBlockEnd
  0
BLOCK
  5
66
330
65
100
AcDbEntity
  8
0
100
AcDbBlockBegin
  2
_NONE
 70
     0
 71
     0
 10
0.0
 20
0.0
 30
0.0
  3
_NONE
  1

  0
ENDBLK
  5
67
330
65
100
AcDbEntity
  8
0
100
AcDbBlockEnd
  0
BLOCK
  5
F1
330
F0
100
AcDbEntity
  8
0
100
AcDbBlockBegin
  2
Dim1
 70
     0
 71
     0
 10
0.0
 20
0.0
 30
0.0
  3
Dim1
  1

  0
LINE
  5
F3
330
F0
100
AcDbEntity
  8
2
  6
Continuous
 62
   132
100
AcDbLine
 10
209.145477538919
 20
129.7496559704827
 30
0.0
 11
209.1454773740485
 21
79.58603418277568
 31
0.0
  0
LINE
  5
F4
330
F0
100
AcDbEntity
  8
2
  6
Continuous
 62
   132
100
AcDbLine
 10
211.145477538919
 20
129.7496559639094
 30
0.0
 11
197.7041754627287
 21
129.7496560080864
 31
0.0
  0
LINE
  5
F5
330
F0
100
AcDbEntity
  8
2
  6
Continuous
 62
   132
100
AcDbLine
 10
211.1454773740485
 20
79.58603417620236
 30
0.0
 11
197.7041752978582
 21
79.58603422037933
 31
0.0
  0
LINE
  5
F6
330
F0
100
AcDbEntity
  8
2
  6
Continuous
 62
   132
100
AcDbLine
 10
209.145477538919
 20
129.7496559704827
 30
0.0
 11
210.1807537066304
 21
125.8859526619238
 31
0.0
  0
LINE
  5
F7
330
F0
100
AcDbEntity
  8
2
  6
Continuous
 62
   132
100
AcDbLine
 10
209.145477538919
 20
129.7496559704827
 30
0.0
 11
208.1102013458102
 21
125.885952668729
 31
0.0
  0
LINE
  5
F8
330
F0
100
AcDbEntity
  8
2
  6
Continuous
 62
   132
100
AcDbLine
 10
209.1454773740485
 20
79.58603418277568
 30
0.0
 11
208.1102012063371
 21
83.44973749133455
 31
0.0
  0
LINE
  5
F9
330
F0
100
AcDbEntity
  8
2
  6
Continuous
 62
   132
100
AcDbLine
 10
209.1454773740485
 20
79.58603418277568
 30
0.0
 11
210.1807535671573
 21
83.44973748452935
 31
0.0
  0
TEXT
  5
FA
330
F0
100
AcDbEntity
  8
2
  6
Continuous
 62
   132
100
AcDbText
 10
209.1454774416938
 20
100.1678450766292
 30
0.0
 40
4.0
  1
(50)
 50
89.99999981168843
 41
0.625
100
AcDbText
  0
ENDBLK
  5
F2
330
F0
100
AcDbEntity
  8
0
100
AcDbBlockEnd
  0
BLOCK
  5
FE
330
FD
100
AcDbEntity
  8
0
100
AcDbBlockBegin
  2
Dim2
 70
     0
 71
     0
 10
0.0
 20
0.0
 30
0.0
  3
Dim2
  1

  0
LINE
  5
100
330
FD
100
AcDbEntity
  8
2
  6
Continuous
 62
   132
100
AcDbLine
 10
70.06982812532701
 20
137.749655577321
 30
0.0
 11
203.8140199546971
 21
137.7496560196815
 31
0.0
  0
LINE
  5
101
330
FD
100
AcDbEntity
  8
2
  6
Continuous
 62
   132
100
AcDbLine
 10
70.06982811871198
 20
139.749655577321
 30
0.0
 11
70.06982814517208
 21
131.7496555456449
 31
0.0
  0
LINE
  5
102
330
FD
100
AcDbEntity
  8
2
  6
Continuous
 62
   132
100
AcDbLine
 10
203.814019948082
 20
139.7496560196815
 30
0.0
 11
203.8140199745422
 21
131.7496559880054
 31
0.0
  0
LINE
  5
103
330
FD
100
AcDbEntity
  8
2
  6
Continuous
 62
   132
100
AcDbLine
 10
70.06982812532701
 20
137.749655577321
 30
0.0
 11
73.93353142705909
 21
138.7849317705103
 31
0.0
  0
LINE
  5
104
330
FD
100
AcDbEntity
  8
2
  6
Continuous
 62
   132
100
AcDbLine
 10
70.06982812532701
 20
137.749655577321
 30
0.0
 11
73.93353143390746
 21
136.7143794096902
 31
0.0
  0
LINE
  5
105
330
FD
100
AcDbEntity
  8
2
  6
Continuous
 62
   132
100
AcDbLine
 10
203.8140199546971
 20
137.7496560196815
 30
0.0
 11
199.950316652965
 21
136.7143798264922
 31
0.0
  0
LINE
  5
106
330
FD
100
AcDbEntity
  8
2
  6
Continuous
 62
   132
100
AcDbLine
 10
203.8140199546971
 20
137.7496560196815
 30
0.0
 11
199.9503166461166
 21
138.7849321873123
 31
0.0
  0
TEXT
  5
107
330
FD
100
AcDbEntity
  8
2
  6
Continuous
 62
   132
100
AcDbText
 10
131.191924040012
 20
137.7496557794831
 30
0.0
 40
4.0
  1
(134)
 50
0.0000001895064584
 41
0.625
100
AcDbText
  0
ENDBLK
  5
FF
330
FD
100
AcDbEntity
  8
0
100
AcDbBlockEnd
  0
BLOCK
  5
122
330
121
100
AcDbEntity
  8
0
100
AcDbBlockBegin
  2
*G14
 70
     1
 71
     0
 10
0.0
 20
0.0
 30
0.0
  3
*G14
  1

  0
ARC
  5
124
330
121
100
AcDbEntity
  8
4
  6
Continuous
 62
    52
100
AcDbCircle
 10
179.262725492358
 20
227.7860337579193
 30
0.0
 40
0.8
100
AcDbArc
 50
89.99999999999992
 51
179.9999999999998
  0
LINE
  5
125
330
121
100
AcDbEntity
  8
4
  6
Continuous
 62
    52
100
AcDbLine
 10
178.462725492358
 20
227.7860337579193
 30
0.0
 11
178.462725492358
 21
220.6860337579192
 31
0.0
  0
LINE
  5
126
330
121
100
AcDbEntity
  8
4
  6
Continuous
 62
    52
100
AcDbLine
 10
186.662725492358
 20
228.5860337579193
 30
0.0
 11
179.262725492358
 21
228.5860337579193
 31
0.0
  0
ARC
  5
127
330
121
100
AcDbEntity
  8
4
  6
Continuous
 62
    52
100
AcDbCircle
 10
186.662725492358
 20
227.7860337579193
 30
0.0
 40
0.8
100
AcDbArc
 50
0.0
 51
89.99999999999992
  0
LINE
  5
128
330
121
100
AcDbEntity
  8
4
  6
Continuous
 62
    52
100
AcDbLine
 10
187.462725492358
 20
220.6860337579192
 30
0.0
 11
187.462725492358
 21
227.7860337579193
 31
0.0
  0
LINE
  5
129
330
121
100
AcDbEntity
  8
4
  6
Continuous
 62
    52
100
AcDbLine
 10
182.962725492358
 20
229.5860337579193
 30
0.0
 11
182.962725492358
 21
228.5860337579193
 31
0.0
  0
ARC
  5
12A
330
121
100
AcDbEntity
  8
4
  6
Continuous
 62
    52
100
AcDbCircle
 10
198.2065753823677
 20
228.1565393157455
 30
0.0
 40
14.99999999999999
100
AcDbArc
 50
184.092509085127
 51
212.5498846033119
  0
ARC
  5
12B
330
121
100
AcDbEntity
  8
4
  6
Continuous
 62
    52
100
AcDbCircle
 10
179.062725492358
 20
220.6860337579192
 30
0.0
 40
0.6000000000000001
100
AcDbArc
 50
179.9999999999998
 51
269.9999999999998
  0
LINE
  5
12C
330
121
100
AcDbEntity
  8
4
  6
Continuous
 62
    52
100
AcDbLine
 10
179.062725492358
 20
220.0860337579193
 30
0.0
 11
186.862725492358
 21
220.0860337579193
 31
0.0
  0
ARC
  5
12D
330
121
100
AcDbEntity
  8
4
  6
Continuous
 62
    52
100
AcDbCircle
 10
186.862725492358
 20
220.6860337579192
 30
0.0
 40
0.6000000000000001
100
AcDbArc
 50
269.9999999999998
 51
0.0
  0
ARC
  5
12E
330
121
100
AcDbEntity
  8
4
  6
Continuous
 62
    52
100
AcDbCircle
 10
178.962725492358
 20
220.5860337579193
 30
0.0
 40
1.0
100
AcDbArc
 50
179.9999999999998
 51
269.9999999999998
  0
LINE
  5
12F
330
121
100
AcDbEntity
  8
4
  6
Continuous
 62
    52
100
AcDbLine
 10
178.962725492358
 20
219.5860337579193
 30
0.0
 11
186.962725492358
 21
219.5860337579193
 31
0.0
  0
LINE
  5
130
330
121
100
AcDbEntity
  8
4
  6
Continuous
 62
    52
100
AcDbLine
 10
177.962725492358
 20
228.5860337579193
 30
0.0
 11
177.962725492358
 21
220.5860337579193
 31
0.0
  0
ARC
  5
131
330
121
100
AcDbEntity
  8
4
  6
Continuous
 62
    52
100
AcDbCircle
 10
178.962725492358
 20
228.5860337579193
 30
0.0
 40
1.0
100
AcDbArc
 50
89.99999999999992
 51
179.9999999999998
  0
LINE
  5
132
330
121
100
AcDbEntity
  8
4
  6
Continuous
 62
    52
100
AcDbLine
 10
186.962725492358
 20
229.5860337579193
 30
0.0
 11
178.962725492358
 21
229.5860337579193
 31
0.0
  0
ARC
  5
133
330
121
100
AcDbEntity
  8
4
  6
Continuous
 62
    52
100
AcDbCircle
 10
186.962725492358
 20
228.5860337579193
 30
0.0
 40
1.0
100
AcDbArc
 50
0.0
 51
89.99999999999992
  0
LINE
  5
134
330
121
100
AcDbEntity
  8
4
  6
Continuous
 62
    52
100
AcDbLine
 10
187.962725492358
 20
220.5860337579193
 30
0.0
 11
187.962725492358
 21
228.5860337579193
 31
0.0
  0
ARC
  5
135
330
121
100
AcDbEntity
  8
4
  6
Continuous
 62
    52
100
AcDbCircle
 10
186.962725492358
 20
220.5860337579193
 30
0.0
 40
1.0
100
AcDbArc
 50
269.9999999999998
 51
0.0
  0
ARC
  5
136
330
121
100
AcDbEntity
  8
4
  6
Continuous
 62
    52
100
AcDbCircle
 10
193.2002149599749
 20
219.5269212503159
 30
0.0
 40
12.50000000000001
100
AcDbArc
 50
142.7906565145482
 51
177.436361720103
  0
ARC
  5
137
330
121
100
AcDbEntity
  8
4
  6
Continuous
 62
    52
100
AcDbCircle
 10
199.2613067741174
 20
228.3797341349073
 30
0.0
 40
14.99999999999996
100
AcDbArc
 50
179.2119686412736
 51
213.5671120267957
  0
HATCH
  5
138
330
121
100
AcDbEntity
  8
4
  6
Continuous
 62
    52
100
AcDbHatch
 10
0.0
 20
0.0
 30
0.0
210
0.0
220
0.0
230
1.0
  2
SOLID
 70
     1
 71
     0
 91
        1
 92
        0
 93
       12
 72
     1
 10
182.962725492358
 20
219.5860337579193
 11
182.962725492358
 21
220.0860337579193
 72
     1
 10
182.962725492358
 20
220.0860337579193
 11
186.862725492358
 21
220.0860337579193
 72
     2
 10
186.862725492358
 20
220.6860337579192
 40
0.6000000000000001
 50
270.0000000000001
 51
360.0
 73
     1
 72
     1
 10
187.462725492358
 20
220.6860337579192
 11
187.462725492358
 21
227.7860337579193
 72
     2
 10
186.662725492358
 20
227.7860337579193
 40
0.8
 50
0.0
 51
89.99999999999992
 73
     1
 72
     1
 10
186.662725492358
 20
228.5860337579193
 11
182.962725492358
 21
228.5860337579193
 72
     1
 10
182.962725492358
 20
228.5860337579193
 11
182.962725492358
 21
229.5860337579193
 72
     1
 10
182.962725492358
 20
229.5860337579193
 11
186.962725492358
 21
229.5860337579193
 72
     2
 10
186.962725492358
 20
228.5860337579193
 40
1.0
 50
0.0
 51
89.99999999999992
 73
     1
 72
     1
 10
187.962725492358
 20
228.5860337579193
 11
187.962725492358
 21
220.5860337579193
 72
     2
 10
186.962725492358
 20
220.5860337579193
 40
1.0
 50
270.0000000000001
 51
360.0
 73
     1
 72
     1
 10
186.962725492358
 20
219.5860337579193
 11
182.962725492358
 21
219.5860337579193
 97
        0
 75
     0
 76
     1
 98
        0
  0
HATCH
  5
139
330
121
100
AcDbEntity
  8
4
  6
Continuous
 62
    52
100
AcDbHatch
 10
0.0
 20
0.0
 30
0.0
210
0.0
220
0.0
230
1.0
  2
SOLID
 70
     1
 71
     0
 91
        1
 92
        0
 93
       12
 72
     1
 10
182.962725492358
 20
229.5860337579193
 11
182.962725492358
 21
228.5860337579193
 72
     1
 10
182.962725492358
 20
228.5860337579193
 11
179.262725492358
 21
228.5860337579193
 72
     2
 10
179.262725492358
 20
227.7860337579193
 40
0.8
 50
89.99999999999992
 51
179.9999999999998
 73
     1
 72
     1
 10
178.462725492358
 20
227.7860337579193
 11
178.462725492358
 21
220.6860337579192
 72
     2
 10
179.062725492358
 20
220.6860337579192
 40
0.6000000000000001
 50
179.9999999999998
 51
270.0000000000001
 73
     1
 72
     1
 10
179.062725492358
 20
220.0860337579193
 11
182.962725492358
 21
220.0860337579193
 72
     1
 10
182.962725492358
 20
220.0860337579193
 11
182.962725492358
 21
219.5860337579193
 72
     1
 10
182.962725492358
 20
219.5860337579193
 11
178.962725492358
 21
219.5860337579193
 72
     2
 10
178.962725492358
 20
220.5860337579193
 40
1.0
 50
179.9999999999998
 51
270.0000000000001
 73
     1
 72
     1
 10
177.962725492358
 20
220.5860337579193
 11
177.962725492358
 21
228.5860337579193
 72
     2
 10
178.962725492358
 20
228.5860337579193
 40
1.0
 50
89.99999999999992
 51
179.9999999999998
 73
     1
 72
     1
 10
178.962725492358
 20
229.5860337579193
 11
182.962725492358
 21
229.5860337579193
 97
        0
 75
     0
 76
     1
 98
        0
  0
TEXT
  5
13A
330
121
100
AcDbEntity
  8
4
  6
Continuous
 62
    52
100
AcDbText
 10
173.462725492358
 20
232.0542898117399
 30
0.0
 40
3.0
  1
KOHZU
 50
-89.99999999999992
100
AcDbText
  0
ARC
  5
13B
330
121
100
AcDbEntity
  8
4
  6
Continuous
 62
    52
100
AcDbCircle
 10
192.7071685643829
 20
219.7059689635561
 30
0.0
 40
13.14677820718141
100
AcDbArc
 50
136.9150538934054
 51
178.3246760026754
  0
HATCH
  5
13C
330
121
100
AcDbEntity
  8
4
  6
Continuous
 62
    52
100
AcDbHatch
 10
0.0
 20
0.0
 30
0.0
210
0.0
220
0.0
230
1.0
  2
SOLID
 70
     1
 71
     0
 91
        1
 92
        0
 93
        7
 72
     1
 10
183.012725492358
 20
228.5860337579192
 11
184.262725492358
 21
228.5860337579192
 72
     2
 10
199.2613067741174
 20
228.3797341349073
 40
14.99999999999996
 50
179.2119686412739
 51
213.5671120267957
 73
     1
 72
     1
 10
186.762725492358
 20
220.0860337579193
 11
185.562725492358
 21
220.0860337579193
 72
     2
 10
198.2065753823677
 20
228.1565393157455
 40
14.99999999999999
 50
184.0925090851276
 51
212.5498846033119
 73
     1
 72
     2
 10
193.2002149599749
 20
219.5269212503159
 40
12.50000000000001
 50
142.790656514548
 51
177.4363617201024
 73
     1
 72
     1
 10
180.712725492358
 20
220.0860337579193
 11
179.565885218343
 21
220.0860337579193
 72
     2
 10
192.7071685643829
 20
219.7059689635561
 40
13.14677820718141
 50
137.5104608311615
 51
178.3433855284783
 73
     1
 97
        0
 75
     0
 76
     1
 98
        0
  0
ENDBLK
  5
123
330
121
100
AcDbEntity
  8
0
100
AcDbBlockEnd
  0
BLOCK
  5
13F
330
13E
100
AcDbEntity
  8
0
100
AcDbBlockBegin
  2
*G15
 70
     1
 71
     0
 10
0.0
 20
0.0
 30
0.0
  3
*G15
  1

  0
TEXT
  5
141
330
13E
100
AcDbEntity
  8
4
  6
SDH_PATTERN
 62
    52
100
AcDbText
 10
180.9627254923578
 20
186.5860337579189
 30
0.0
 40
4.0
  1
ＨＪ
 50
-89.99999999999992
 41
0.75
100
AcDbText
  0
TEXT
  5
142
330
13E
100
AcDbEntity
  8
4
  6
SDH_PATTERN
 62
    52
100
AcDbText
 10
180.9627254923577
 20
202.0860337579189
 30
0.0
 40
4.0
  1
２００
 50
-89.99999999999992
 41
0.75
100
AcDbText
  0
TEXT
  5
143
330
13E
100
AcDbEntity
  8
4
  6
SDH_PATTERN
 62
    52
100
AcDbText
 10
180.9627254923577
 20
204.0860337579189
 30
0.0
 40
4.0
  1
-
 50
-89.99999999999992
 41
0.75
100
AcDbText
  0
TEXT
  5
144
330
13E
100
AcDbEntity
  8
4
  6
SDH_PATTERN
 62
    52
100
AcDbText
 10
180.9627254923577
 20
214.5860337579191
 30
0.0
 40
4.0
  1
ＳＣ
 50
-89.99999999999992
100
AcDbText
  0
ENDBLK
  5
140
330
13E
100
AcDbEntity
  8
0
100
AcDbBlockEnd
  0
BLOCK
  5
148
330
147
100
AcDbEntity
  8
0
100
AcDbBlockBegin
  2
*G16
 70
     1
 71
     0
 10
0.0
 20
0.0
 30
0.0
  3
*G16
  1

  0
ARC
  5
14A
330
147
100
AcDbEntity
  8
4
  6
Continuous
 62
    52
100
AcDbCircle
 10
166.732904708661
 20
168.579414313729
 30
0.0
 40
18.50993113238164
100
AcDbArc
 50
124.7845049930989
 51
141.5635865015953
  0
ARC
  5
14B
330
147
100
AcDbEntity
  8
4
  6
Continuous
 62
    52
100
AcDbCircle
 10
152.2341027205528
 20
194.586036314576
 30
0.0
 40
11.50000238560073
100
AcDbArc
 50
249.9691839967582
 51
290.0308160032413
  0
ARC
  5
14C
330
147
100
AcDbEntity
  8
4
  6
Continuous
 62
    52
100
AcDbCircle
 10
137.7353007324543
 20
168.579414313741
 30
0.0
 40
18.50993113236615
100
AcDbArc
 50
38.43641349839448
 51
55.21549500690452
  0
ARC
  5
14D
330
147
100
AcDbEntity
  8
4
  6
Continuous
 62
    52
100
AcDbCircle
 10
178.2407221821991
 20
209.0848357634835
 30
0.0
 40
18.50993113238164
100
AcDbArc
 50
214.7845049930987
 51
231.5635865015949
  0
ARC
  5
14E
330
147
100
AcDbEntity
  8
4
  6
Continuous
 62
    52
100
AcDbCircle
 10
152.234100181352
 20
194.5860337753753
 30
0.0
 40
11.50000238560073
100
AcDbArc
 50
339.9691839967582
 51
20.03081600324133
  0
ARC
  5
14F
330
147
100
AcDbEntity
  8
4
  6
Continuous
 62
    52
100
AcDbCircle
 10
178.240722182187
 20
180.0872317872768
 30
0.0
 40
18.50993113236615
100
AcDbArc
 50
128.4364134983945
 51
145.2154950069045
  0
ARC
  5
150
330
147
100
AcDbEntity
  8
4
  6
Continuous
 62
    52
100
AcDbCircle
 10
126.2274832589065
 20
180.0872317872671
 30
0.0
 40
18.50993113238164
100
AcDbArc
 50
34.78450499309906
 51
51.56358650159525
  0
ARC
  5
151
330
147
100
AcDbEntity
  8
4
  6
Continuous
 62
    52
100
AcDbCircle
 10
152.2341052597535
 20
194.5860337753753
 30
0.0
 40
11.50000238560073
100
AcDbArc
 50
159.9691839967583
 51
200.0308160032411
  0
ARC
  5
152
330
147
100
AcDbEntity
  8
4
  6
Continuous
 62
    52
100
AcDbCircle
 10
126.2274832589185
 20
209.0848357634737
 30
0.0
 40
18.50993113236615
100
AcDbArc
 50
308.4364134983942
 51
325.2154950069043
  0
ARC
  5
153
330
147
100
AcDbEntity
  8
4
  6
Continuous
 62
    52
100
AcDbCircle
 10
137.7353007324445
 20
220.5926532370216
 30
0.0
 40
18.50993113238164
100
AcDbArc
 50
304.7845049930987
 51
321.563586501595
  0
ARC
  5
154
330
147
100
AcDbEntity
  8
4
  6
Continuous
 62
    52
100
AcDbCircle
 10
152.2341027205528
 20
194.5860312361745
 30
0.0
 40
11.50000238560073
100
AcDbArc
 50
69.96918399675867
 51
110.0308160032416
  0
ARC
  5
155
330
147
100
AcDbEntity
  8
4
  6
Continuous
 62
    52
100
AcDbCircle
 10
166.7329047086511
 20
220.5926532370095
 30
0.0
 40
18.50993113236615
100
AcDbArc
 50
218.4364134983944
 51
235.2154950069043
  0
INSERT
  5
169
330
147
100
AcDbEntity
  8
0
100
AcDbBlockReference
  2
*G17
 10
0.0
 20
0.0
 30
0.0
  0
INSERT
  5
17D
330
147
100
AcDbEntity
  8
0
100
AcDbBlockReference
  2
*G18
 10
0.0
 20
0.0
 30
0.0
  0
INSERT
  5
1A1
330
147
100
AcDbEntity
  8
0
100
AcDbBlockReference
  2
*G19
 10
0.0
 20
0.0
 30
0.0
  0
ENDBLK
  5
149
330
147
100
AcDbEntity
  8
0
100
AcDbBlockEnd
  0
BLOCK
  5
157
330
156
100
AcDbEntity
  8
0
100
AcDbBlockBegin
  2
*G17
 70
     1
 71
     0
 10
0.0
 20
0.0
 30
0.0
  3
*G17
  1

  0
LINE
  5
159
330
156
100
AcDbEntity
  8
4
  6
Continuous
 62
    52
100
AcDbLine
 10
155.784001540814
 20
183.5038596952707
 30
0.0
 11
156.0004053069607
 21
183.7202634614174
 31
0.0
  0
LINE
  5
15A
330
156
100
AcDbEntity
  8
4
  6
Continuous
 62
    52
100
AcDbLine
 10
151.8473745423547
 20
180.5571821904726
 30
0.0
 11
154.6281884681942
 21
183.337996116312
 31
0.0
  0
LINE
  5
15B
330
156
100
AcDbEntity
  8
4
  6
Continuous
 62
    52
100
AcDbLine
 10
151.3834640909007
 20
181.0832212326798
 30
0.0
 11
153.4508235504378
 21
183.1505806922168
 31
0.0
  0
LINE
  5
15C
330
156
100
AcDbEntity
  8
4
  6
Continuous
 62
    52
100
AcDbLine
 10
150.9007743311901
 20
181.5904809666304
 30
0.0
 11
152.3974879930549
 21
183.0871946284951
 31
0.0
  0
LINE
  5
15D
330
156
100
AcDbEntity
  8
4
  6
Continuous
 62
    52
100
AcDbLine
 10
150.3993581695937
 20
182.0790142986951
 30
0.0
 11
151.4342288338658
 21
183.1138849629673
 31
0.0
  0
LINE
  5
15E
330
156
100
AcDbEntity
  8
4
  6
Continuous
 62
    52
100
AcDbLine
 10
149.8791878904534
 20
182.548793513216
 30
0.0
 11
150.541649124885
 21
183.2112547476476
 31
0.0
  0
LINE
  5
15F
330
156
100
AcDbEntity
  8
4
  6
Continuous
 62
    52
100
AcDbLine
 10
149.3401545565269
 20
182.9997096729508
 30
0.0
 11
149.7074711021678
 21
183.3670262185917
 31
0.0
  0
LINE
  5
160
330
156
100
AcDbEntity
  8
4
  6
Continuous
 62
    52
100
AcDbLine
 10
148.7820656331441
 20
183.4315702432291
 30
0.0
 11
148.9233918867971
 21
183.5728964968821
 31
0.0
  0
LINE
  5
161
330
156
100
AcDbEntity
  8
4
  6
Continuous
 62
    52
100
AcDbLine
 10
155.6861398079614
 20
183.431570243229
 30
0.0
 11
155.5448135543083
 21
183.572896496882
 31
0.0
  0
LINE
  5
162
330
156
100
AcDbEntity
  8
4
  6
Continuous
 62
    52
100
AcDbLine
 10
155.1280508845785
 20
182.9997096729506
 30
0.0
 11
154.7607343389375
 21
183.3670262185916
 31
0.0
  0
LINE
  5
163
330
156
100
AcDbEntity
  8
4
  6
Continuous
 62
    52
100
AcDbLine
 10
154.589017550652
 20
182.5487935132159
 30
0.0
 11
153.9265563162203
 21
183.2112547476476
 31
0.0
  0
LINE
  5
164
330
156
100
AcDbEntity
  8
4
  6
Continuous
 62
    52
100
AcDbLine
 10
154.0688472715117
 20
182.079014298695
 30
0.0
 11
153.0339766072395
 21
183.1138849629672
 31
0.0
  0
LINE
  5
165
330
156
100
AcDbEntity
  8
4
  6
Continuous
 62
    52
100
AcDbLine
 10
153.5674311099153
 20
181.5904809666303
 30
0.0
 11
152.0707174480505
 21
183.0871946284951
 31
0.0
  0
LINE
  5
166
330
156
100
AcDbEntity
  8
4
  6
Continuous
 62
    52
100
AcDbLine
 10
153.0847413502046
 20
181.0832212326798
 30
0.0
 11
151.0173818906675
 21
183.1505806922169
 31
0.0
  0
LINE
  5
167
330
156
100
AcDbEntity
  8
4
  6
Continuous
 62
    52
100
AcDbLine
 10
152.6208308987506
 20
180.5571821904726
 30
0.0
 11
149.8400169729111
 21
183.3379961163121
 31
0.0
  0
LINE
  5
168
330
156
100
AcDbEntity
  8
4
  6
Continuous
 62
    52
100
AcDbLine
 10
148.6842039002907
 20
183.5038596952714
 30
0.0
 11
148.4678001341445
 21
183.7202634614175
 31
0.0
  0
ENDBLK
  5
158
330
156
100
AcDbEntity
  8
0
100
AcDbBlockEnd
  0
BLOCK
  5
16B
330
16A
100
AcDbEntity
  8
0
100
AcDbBlockBegin
  2
*G18
 70
     1
 71
     0
 10
0.0
 20
0.0
 30
0.0
  3
*G18
  1

  0
LINE
  5
16D
330
16A
100
AcDbEntity
  8
4
  6
Continuous
 62
    52
100
AcDbLine
 10
141.0796391884065
 20
191.1339966879667
 30
0.0
 11
141.2209654420595
 21
191.2753229416198
 31
0.0
  0
LINE
  5
16E
330
16A
100
AcDbEntity
  8
4
  6
Continuous
 62
    52
100
AcDbLine
 10
140.6477786181281
 20
191.6920856113495
 30
0.0
 11
141.0150951637691
 21
192.0594021569904
 31
0.0
  0
LINE
  5
16F
330
16A
100
AcDbEntity
  8
4
  6
Continuous
 62
    52
100
AcDbLine
 10
140.1968624583934
 20
192.231118945276
 30
0.0
 11
140.8593236928251
 21
192.8935801797076
 31
0.0
  0
LINE
  5
170
330
16A
100
AcDbEntity
  8
4
  6
Continuous
 62
    52
100
AcDbLine
 10
139.7270832438726
 20
192.7512892244163
 30
0.0
 11
140.7619539081447
 21
193.7861598886885
 31
0.0
  0
LINE
  5
171
330
16A
100
AcDbEntity
  8
4
  6
Continuous
 62
    52
100
AcDbLine
 10
139.2385499118078
 20
193.2527053860128
 30
0.0
 11
140.7352635736726
 21
194.7494190478776
 31
0.0
  0
LINE
  5
172
330
16A
100
AcDbEntity
  8
4
  6
Continuous
 62
    52
100
AcDbLine
 10
138.7312901778573
 20
193.7353951457234
 30
0.0
 11
140.7986496373943
 21
195.8027546052604
 31
0.0
  0
LINE
  5
173
330
16A
100
AcDbEntity
  8
4
  6
Continuous
 62
    52
100
AcDbLine
 10
138.2052511356501
 20
194.1993055971774
 30
0.0
 11
140.9860650614895
 21
196.9801195230169
 31
0.0
  0
LINE
  5
174
330
16A
100
AcDbEntity
  8
4
  6
Continuous
 62
    52
100
AcDbLine
 10
141.1519286404488
 20
198.1359325956373
 30
0.0
 11
141.3683324065949
 21
198.3523363617834
 31
0.0
  0
LINE
  5
175
330
16A
100
AcDbEntity
  8
4
  6
Continuous
 62
    52
100
AcDbLine
 10
141.2209654420595
 20
197.8967446091307
 30
0.0
 11
141.0796391884065
 21
198.0380708627838
 31
0.0
  0
LINE
  5
176
330
16A
100
AcDbEntity
  8
4
  6
Continuous
 62
    52
100
AcDbLine
 10
141.0150951637691
 20
197.11266539376
 30
0.0
 11
140.6477786181282
 21
197.4799819394009
 31
0.0
  0
LINE
  5
177
330
16A
100
AcDbEntity
  8
4
  6
Continuous
 62
    52
100
AcDbLine
 10
140.8593236928251
 20
196.2784873710428
 30
0.0
 11
140.1968624583934
 21
196.9409486054745
 31
0.0
  0
LINE
  5
178
330
16A
100
AcDbEntity
  8
4
  6
Continuous
 62
    52
100
AcDbLine
 10
140.7619539081447
 20
195.385907662062
 30
0.0
 11
139.7270832438726
 21
196.4207783263342
 31
0.0
  0
LINE
  5
179
330
16A
100
AcDbEntity
  8
4
  6
Continuous
 62
    52
100
AcDbLine
 10
140.7352635736726
 20
194.4226485028729
 30
0.0
 11
139.2385499118078
 21
195.9193621647378
 31
0.0
  0
LINE
  5
17A
330
16A
100
AcDbEntity
  8
4
  6
Continuous
 62
    52
100
AcDbLine
 10
140.7986496373943
 20
193.36931294549
 30
0.0
 11
138.7312901778572
 21
195.4366724050272
 31
0.0
  0
LINE
  5
17B
330
16A
100
AcDbEntity
  8
4
  6
Continuous
 62
    52
100
AcDbLine
 10
140.9860650614896
 20
192.1919480277336
 30
0.0
 11
138.20525113565
 21
194.9727619535732
 31
0.0
  0
LINE
  5
17C
330
16A
100
AcDbEntity
  8
4
  6
Continuous
 62
    52
100
AcDbLine
 10
141.368332406595
 20
190.819731188967
 30
0.0
 11
141.1519286404489
 21
191.036134955113
 31
0.0
  0
ENDBLK
  5
16C
330
16A
100
AcDbEntity
  8
0
100
AcDbBlockEnd
  0
BLOCK
  5
17F
330
17E
100
AcDbEntity
  8
0
100
AcDbBlockBegin
  2
*G19
 70
     1
 71
     0
 10
0.0
 20
0.0
 30
0.0
  3
*G19
  1

  0
LINE
  5
181
330
17E
100
AcDbEntity
  8
4
  6
Continuous
 62
    52
100
AcDbLine
 10
163.4187461249875
 20
191.9113842685537
 30
0.0
 11
166.3808772106216
 21
194.8735153541879
 31
0.0
  0
LINE
  5
182
330
17E
100
AcDbEntity
  8
4
  6
Continuous
 62
    52
100
AcDbLine
 10
163.6406954334271
 20
193.1232830706545
 30
0.0
 11
165.8507033475156
 21
195.3332909847431
 31
0.0
  0
LINE
  5
183
330
17E
100
AcDbEntity
  8
4
  6
Continuous
 62
    52
100
AcDbLine
 10
163.7276270339993
 20
194.200164164888
 30
0.0
 11
165.3393312614491
 21
195.8118683923377
 31
0.0
  0
LINE
  5
184
330
17E
100
AcDbEntity
  8
4
  6
Continuous
 62
    52
100
AcDbLine
 10
163.7186923409167
 20
195.1811789654665
 30
0.0
 11
164.8466902676091
 21
196.3091768921589
 31
0.0
  0
LINE
  5
185
330
17E
100
AcDbEntity
  8
4
  6
Continuous
 62
    52
100
AcDbLine
 10
163.6355940216322
 20
196.0880301398432
 30
0.0
 11
164.3727904045352
 21
196.8252265227462
 31
0.0
  0
LINE
  5
186
330
17E
100
AcDbEntity
  8
4
  6
Continuous
 62
    52
100
AcDbLine
 10
163.4918158980966
 20
196.9342015099688
 30
0.0
 11
163.9177226511691
 21
197.3601082630412
 31
0.0
  0
LINE
  5
187
330
17E
100
AcDbEntity
  8
4
  6
Continuous
 62
    52
100
AcDbLine
 10
163.2963650101449
 20
197.7287001156782
 30
0.0
 11
163.4816609058618
 21
197.9139960113952
 31
0.0
  0
LINE
  5
188
330
17E
100
AcDbEntity
  8
4
  6
Continuous
 62
    52
100
AcDbLine
 10
163.0555556085146
 20
198.4778402077092
 30
0.0
 11
163.0648658288685
 21
198.487150428063
 31
0.0
  0
LINE
  5
189
330
17E
100
AcDbEntity
  8
4
  6
Continuous
 62
    52
100
AcDbLine
 10
156.1259091528862
 20
205.4074866633374
 30
0.0
 11
156.1352193732401
 21
205.4167968836912
 31
0.0
  0
LINE
  5
18A
330
17E
100
AcDbEntity
  8
4
  6
Continuous
 62
    52
100
AcDbLine
 10
155.3767690608553
 20
205.6482960649676
 30
0.0
 11
155.5620649565723
 21
205.8335919606847
 31
0.0
  0
LINE
  5
18B
330
17E
100
AcDbEntity
  8
4
  6
Continuous
 62
    52
100
AcDbLine
 10
154.5822704551457
 20
205.8437469529192
 30
0.0
 11
155.0081772082183
 21
206.2696537059919
 31
0.0
  0
LINE
  5
18C
330
17E
100
AcDbEntity
  8
4
  6
Continuous
 62
    52
100
AcDbLine
 10
153.7360990850201
 20
205.9875250764548
 30
0.0
 11
154.4732954679233
 21
206.724721459358
 31
0.0
  0
LINE
  5
18D
330
17E
100
AcDbEntity
  8
4
  6
Continuous
 62
    52
100
AcDbLine
 10
152.8292479106433
 20
206.0706233957392
 30
0.0
 11
153.957245837336
 21
207.1986213224319
 31
0.0
  0
LINE
  5
18E
330
17E
100
AcDbEntity
  8
4
  6
Continuous
 62
    52
100
AcDbLine
 10
151.8482331100647
 20
206.0795580888218
 30
0.0
 11
153.4599373375149
 21
207.691262316272
 31
0.0
  0
LINE
  5
18F
330
17E
100
AcDbEntity
  8
4
  6
Continuous
 62
    52
100
AcDbLine
 10
150.7713520158312
 20
205.9926264882495
 30
0.0
 11
152.9813599299204
 21
208.2026344023386
 31
0.0
  0
LINE
  5
190
330
17E
100
AcDbEntity
  8
4
  6
Continuous
 62
    52
100
AcDbLine
 10
149.5594532137303
 20
205.7706771798098
 30
0.0
 11
152.5215842993653
 21
208.7328082654447
 31
0.0
  0
LINE
  5
191
330
17E
100
AcDbEntity
  8
4
  6
Continuous
 62
    52
100
AcDbLine
 10
163.6647095921051
 20
197.6761808252826
 30
0.0
 11
163.1567093419976
 21
198.1841810753902
 31
0.0
  0
LINE
  5
192
330
17E
100
AcDbEntity
  8
4
  6
Continuous
 62
    52
100
AcDbLine
 10
155.8322500205678
 20
205.5086403968201
 30
0.0
 11
155.3242497704606
 21
206.0166406469272
 31
0.0
  0
LINE
  5
193
330
17E
100
AcDbEntity
  8
4
  6
Continuous
 62
    52
100
AcDbLine
 10
166.2028610312845
 20
194.1480798924421
 30
0.0
 11
163.5110824505831
 21
196.8398584731435
 31
0.0
  0
LINE
  5
194
330
17E
100
AcDbEntity
  8
4
  6
Continuous
 62
    52
100
AcDbLine
 10
154.487927418321
 20
205.8630135054056
 30
0.0
 11
151.7961488376198
 21
208.5547920861069
 31
0.0
  0
LINE
  5
195
330
17E
100
AcDbEntity
  8
4
  6
Continuous
 62
    52
100
AcDbLine
 10
165.6789388948818
 20
193.6820525351836
 30
0.0
 11
163.6820525435361
 21
195.6789388865293
 31
0.0
  0
LINE
  5
196
330
17E
100
AcDbEntity
  8
4
  6
Continuous
 62
    52
100
AcDbLine
 10
153.3270078317068
 20
206.0339835983586
 30
0.0
 11
151.3301214803612
 21
208.0308699497043
 31
0.0
  0
LINE
  5
197
330
17E
100
AcDbEntity
  8
4
  6
Continuous
 62
    52
100
AcDbLine
 10
165.1737860736356
 20
193.1972558627686
 30
0.0
 11
163.7339893962297
 21
194.6370525401745
 31
0.0
  0
LINE
  5
198
330
17E
100
AcDbEntity
  8
4
  6
Continuous
 62
    52
100
AcDbLine
 10
152.285121485352
 20
206.0859204510522
 30
0.0
 11
150.8453248079461
 21
207.5257171284582
 31
0.0
  0
LINE
  5
199
330
17E
100
AcDbEntity
  8
4
  6
Continuous
 62
    52
100
AcDbLine
 10
164.6873587517685
 20
192.6937336909745
 30
0.0
 11
163.6985560089351
 21
193.682536433808
 31
0.0
  0
LINE
  5
19A
330
17E
100
AcDbEntity
  8
4
  6
Continuous
 62
    52
100
AcDbLine
 10
151.3306053789855
 20
206.0504870637576
 30
0.0
 11
150.341802636152
 21
207.0392898065911
 31
0.0
  0
LINE
  5
19B
330
17E
100
AcDbEntity
  8
4
  6
Continuous
 62
    52
100
AcDbLine
 10
164.2196937160418
 20
192.1714492330399
 30
0.0
 11
163.5940988901268
 21
192.797044058955
 31
0.0
  0
LINE
  5
19C
330
17E
100
AcDbEntity
  8
4
  6
Continuous
 62
    52
100
AcDbLine
 10
150.4451130041326
 20
205.9460299449493
 30
0.0
 11
149.8195181782174
 21
206.5716247708645
 31
0.0
  0
LINE
  5
19D
330
17E
100
AcDbEntity
  8
4
  6
Continuous
 62
    52
100
AcDbLine
 10
163.7709091518863
 20
191.6302843035343
 30
0.0
 11
163.4323344629136
 21
191.9688589925071
 31
0.0
  0
LINE
  5
19E
330
17E
100
AcDbEntity
  8
4
  6
Continuous
 62
    52
100
AcDbLine
 10
149.6169279376846
 20
205.7842655177361
 30
0.0
 11
149.2783532487118
 21
206.1228402067089
 31
0.0
  0
LINE
  5
19F
330
17E
100
AcDbEntity
  8
4
  6
Continuous
 62
    52
100
AcDbLine
 10
163.3412072248625
 20
191.070036736897
 30
0.0
 11
163.2212328728934
 21
191.1900110888661
 31
0.0
  0
LINE
  5
1A0
330
17E
100
AcDbEntity
  8
4
  6
Continuous
 62
    52
100
AcDbLine
 10
148.8380800340436
 20
205.5731639277159
 30
0.0
 11
148.7181056820745
 21
205.693138279685
 31
0.0
  0
ENDBLK
  5
180
330
17E
100
AcDbEntity
  8
0
100
AcDbBlockEnd
  0
BLOCK
  5
1AD
330
1AC
100
AcDbEntity
  8
0
100
AcDbBlockBegin
  2
Dim3
 70
     0
 71
     0
 10
0.0
 20
0.0
 30
0.0
  3
Dim3
  1

  0
LINE
  5
1AF
330
1AC
100
AcDbEntity
  8
2
  6
Continuous
 62
   132
100
AcDbLine
 10
211.8140200413192
 20
159.5860337579193
 30
0.0
 11
211.8140200413192
 21
239.5860337579193
 31
0.0
  0
LINE
  5
1B0
330
1AC
100
AcDbEntity
  8
2
  6
Continuous
 62
   132
100
AcDbLine
 10
213.8140200413192
 20
159.5860337579193
 30
0.0
 11
205.8140200413192
 21
159.5860337579193
 31
0.0
  0
LINE
  5
1B1
330
1AC
100
AcDbEntity
  8
2
  6
Continuous
 62
   132
100
AcDbLine
 10
213.8140200413192
 20
239.5860337579193
 30
0.0
 11
205.8140200413192
 21
239.5860337579193
 31
0.0
  0
LINE
  5
1B2
330
1AC
100
AcDbEntity
  8
2
  6
Continuous
 62
   132
100
AcDbLine
 10
211.8140200413192
 20
159.5860337579193
 30
0.0
 11
210.7787438609091
 21
163.4497370630755
 31
0.0
  0
LINE
  5
1B3
330
1AC
100
AcDbEntity
  8
2
  6
Continuous
 62
   132
100
AcDbLine
 10
211.8140200413192
 20
159.5860337579193
 30
0.0
 11
212.8492962217293
 21
163.4497370630755
 31
0.0
  0
LINE
  5
1B4
330
1AC
100
AcDbEntity
  8
2
  6
Continuous
 62
   132
100
AcDbLine
 10
211.8140200413192
 20
239.5860337579193
 30
0.0
 11
212.8492962217292
 21
235.7223304527631
 31
0.0
  0
LINE
  5
1B5
330
1AC
100
AcDbEntity
  8
2
  6
Continuous
 62
   132
100
AcDbLine
 10
211.8140200413192
 20
239.5860337579193
 30
0.0
 11
210.7787438609091
 21
235.7223304527631
 31
0.0
  0
TEXT
  5
1B6
330
1AC
100
AcDbEntity
  8
2
  6
Continuous
 62
   132
100
AcDbText
 10
211.8140200413192
 20
197.5860337579193
 30
0.0
 40
4.0
  1
80
 50
89.99999999999993
 41
0.625
100
AcDbText
  0
ENDBLK
  5
1AE
330
1AC
100
AcDbEntity
  8
0
100
AcDbBlockEnd
  0
ENDSEC
  0
SECTION
  2
ENTITIES
  0
TEXT
  5
A2
330
1F
100
AcDbEntity
  8
20
  6
Continuous
 62
    92
100
AcDbText
 10
389.891315
 20
27.884872
 30
0.0
 40
2.5
  1
作図
 41
1.2
100
AcDbText
  0
TEXT
  5
A3
330
1F
100
AcDbEntity
  8
20
  6
Continuous
 62
    92
100
AcDbText
 10
396.891315
 20
28.384872
 30
0.0
 40
1.5
  1
ＤＷＮ
 41
0.9333329999999999
100
AcDbText
  0
LINE
  5
A4
330
1F
100
AcDbEntity
  8
20
  6
Continuous
 62
    92
100
AcDbLine
 10
293.0
 20
37.5
 30
0.0
 11
293.0
 21
12.0
 31
0.0
  0
LINE
  5
A5
330
1F
100
AcDbEntity
  8
20
  6
Continuous
 62
    92
100
AcDbLine
 10
343.0
 20
37.5
 30
0.0
 11
343.0
 21
32.0
 31
0.0
  0
TEXT
  5
A6
330
1F
100
AcDbEntity
  8
20
  6
Continuous
 62
    92
100
AcDbText
 10
353.5
 20
33.6
 30
0.0
 40
2.0
  1
ＳＣＡＬＥ
 41
0.9
100
AcDbText
  0
TEXT
  5
A7
330
1F
100
AcDbEntity
  8
20
  6
Continuous
 62
    92
100
AcDbText
 10
345.0
 20
33.4
 30
0.0
 40
2.5
  1
尺度:
 41
1.2
100
AcDbText
  0
LINE
  5
A8
330
1F
100
AcDbEntity
  8
20
  6
Continuous
 62
    92
100
AcDbLine
 10
388.0
 20
32.0
 30
0.0
 11
388.0
 21
37.5
 31
0.0
  0
LINE
  5
A9
330
1F
100
AcDbEntity
  8
20
  6
Continuous
 62
    92
100
AcDbLine
 10
388.0
 20
12.0
 30
0.0
 11
388.0
 21
32.0
 31
0.0
  0
LINE
  5
AA
330
1F
100
AcDbEntity
  8
20
  6
Continuous
 62
    92
100
AcDbLine
 10
388.0
 20
32.0
 30
0.0
 11
408.0
 21
32.0
 31
0.0
  0
LINE
  5
AB
330
1F
100
AcDbEntity
  8
20
  6
Continuous
 62
    92
100
AcDbLine
 10
293.0
 20
32.0
 30
0.0
 11
388.0
 21
32.0
 31
0.0
  0
LINE
  5
AC
330
1F
100
AcDbEntity
  8
20
  6
Continuous
 62
    92
100
AcDbLine
 10
388.0
 20
26.5
 30
0.0
 11
408.0
 21
26.5
 31
0.0
  0
LINE
  5
AD
330
1F
100
AcDbEntity
  8
20
  6
Continuous
 62
    92
100
AcDbLine
 10
293.0
 20
37.5
 30
0.0
 11
408.0
 21
37.5
 31
0.0
  0
CIRCLE
  5
AE
330
1F
100
AcDbEntity
  8
20
  6
Continuous
 62
    92
100
AcDbCircle
 10
394.835915
 20
34.752343
 30
0.0
 40
1.600000000000023
  0
CIRCLE
  5
AF
330
1F
100
AcDbEntity
  8
20
  6
Continuous
 62
    92
100
AcDbCircle
 10
394.835915
 20
34.752343
 30
0.0
 40
1.0
  0
LINE
  5
B0
330
1F
100
AcDbEntity
  8
20
  6
Continuous
 62
    92
100
AcDbLine
 10
394.835915
 20
36.752343
 30
0.0
 11
394.835915
 21
32.752343
 31
0.0
  0
LINE
  5
B1
330
1F
100
AcDbEntity
  8
20
  6
Continuous
 62
    92
100
AcDbLine
 10
392.835915
 20
34.752343
 30
0.0
 11
396.835915
 21
34.752343
 31
0.0
  0
LINE
  5
B2
330
1F
100
AcDbEntity
  8
20
  6
Continuous
 62
    92
100
AcDbLine
 10
403.0
 20
33.152343
 30
0.0
 11
403.0
 21
36.352343
 31
0.0
  0
LINE
  5
B3
330
1F
100
AcDbEntity
  8
20
  6
Continuous
 62
    92
100
AcDbLine
 10
399.8
 20
33.752343
 30
0.0
 11
403.0
 21
33.152343
 31
0.0
  0
LINE
  5
B4
330
1F
100
AcDbEntity
  8
20
  6
Continuous
 62
    92
100
AcDbLine
 10
399.8
 20
35.752343
 30
0.0
 11
399.8
 21
33.752343
 31
0.0
  0
LINE
  5
B5
330
1F
100
AcDbEntity
  8
20
  6
Continuous
 62
    92
100
AcDbLine
 10
403.0
 20
36.352343
 30
0.0
 11
399.8
 21
35.752343
 31
0.0
  0
LINE
  5
B6
330
1F
100
AcDbEntity
  8
20
  6
Continuous
 62
    92
100
AcDbLine
 10
399.4
 20
34.752343
 30
0.0
 11
403.4
 21
34.752343
 31
0.0
  0
TEXT
  5
B7
330
1F
100
AcDbEntity
  8
20
  6
Continuous
 62
    92
100
AcDbText
 10
303.5
 20
33.6
 30
0.0
 40
2.0
  1
ＤＷＧ ＤＡＴＥ
 41
0.9
100
AcDbText
  0
TEXT
  5
B8
330
1F
100
AcDbEntity
  8
20
  6
Continuous
 62
    92
100
AcDbText
 10
295.0
 20
33.4
 30
0.0
 40
2.5
  1
日付:
 41
1.2
100
AcDbText
  0
LINE
  5
B9
330
1F
100
AcDbEntity
  8
20
  6
Continuous
 62
    92
100
AcDbLine
 10
305.0
 20
32.0
 30
0.0
 11
305.0
 21
22.0
 31
0.0
  0
TEXT
  5
BA
330
1F
100
AcDbEntity
  8
20
  6
Continuous
 62
    92
100
AcDbText
 10
295.0
 20
24.3
 30
0.0
 40
1.5
  1
ＴＩＴＬＥ
 41
0.9333329999999999
100
AcDbText
  0
TEXT
  5
BB
330
1F
100
AcDbEntity
  8
20
  6
Continuous
 62
    92
100
AcDbText
 10
307.01002
 20
15.8
 30
0.0
 40
4.300000000000001
  1
神津精機株式会社
 41
1.860465
100
AcDbText
  0
TEXT
  5
BC
330
1F
100
AcDbEntity
  8
20
  6
Continuous
 62
    92
100
AcDbText
 10
307.2
 20
13.7
 30
0.0
 40
2.0
  1
ＫＯＨＺＵ　Ｐｒｅｃｉｓｉｏｎ　Ｃｏ., Ｌｔｄ．
 41
1.05
100
AcDbText
  0
LINE
  5
BD
330
1F
100
AcDbEntity
  8
20
  6
Continuous
 62
    92
100
AcDbLine
 10
302.928263
 20
18.861259
 30
0.0
 11
302.928263
 21
15.043463
 31
0.0
  0
LINE
  5
BE
330
1F
100
AcDbEntity
  8
20
  6
Continuous
 62
    92
100
AcDbLine
 10
302.428263
 20
15.11829
 30
0.0
 11
302.428263
 21
18.608639
 31
0.0
  0
LINE
  5
BF
330
1F
100
AcDbEntity
  8
20
  6
Continuous
 62
    92
100
AcDbLine
 10
301.928263
 20
18.38685
 30
0.0
 11
301.928263
 21
15.216889
 31
0.0
  0
LINE
  5
C0
330
1F
100
AcDbEntity
  8
20
  6
Continuous
 62
    92
100
AcDbLine
 10
301.428263
 20
18.193911
 30
0.0
 11
301.428263
 21
15.339923
 31
0.0
  0
LINE
  5
C1
330
1F
100
AcDbEntity
  8
20
  6
Continuous
 62
    92
100
AcDbLine
 10
300.928263
 20
18.028236
 30
0.0
 11
300.928263
 21
15.488253
 31
0.0
  0
LINE
  5
C2
330
1F
100
AcDbEntity
  8
20
  6
Continuous
 62
    92
100
AcDbLine
 10
300.428263
 20
15.662974
 30
0.0
 11
300.428263
 21
17.888554
 31
0.0
  0
LINE
  5
C3
330
1F
100
AcDbEntity
  8
20
  6
Continuous
 62
    92
100
AcDbLine
 10
299.928263
 20
17.773853
 30
0.0
 11
299.928263
 21
15.865454
 31
0.0
  0
LINE
  5
C4
330
1F
100
AcDbEntity
  8
20
  6
Continuous
 62
    92
100
AcDbLine
 10
299.428263
 20
16.097406
 30
0.0
 11
299.428263
 21
17.683342
 31
0.0
  0
LINE
  5
C5
330
1F
100
AcDbEntity
  8
20
  6
Continuous
 62
    92
100
AcDbLine
 10
298.928263
 20
17.616421
 30
0.0
 11
298.928263
 21
16.360964
 31
0.0
  0
LINE
  5
C6
330
1F
100
AcDbEntity
  8
20
  6
Continuous
 62
    92
100
AcDbLine
 10
298.428263
 20
16.658818
 30
0.0
 11
298.428263
 21
17.572658
 31
0.0
  0
LINE
  5
C7
330
1F
100
AcDbEntity
  8
20
  6
Continuous
 62
    92
100
AcDbLine
 10
297.928263
 20
17.558189
 30
0.0
 11
297.928263
 21
16.994385
 31
0.0
  0
ARC
  5
C8
330
1F
100
AcDbEntity
  8
20
  6
Continuous
 62
    92
100
AcDbCircle
 10
302.789711
 20
14.5
 30
0.0
 40
0.5
100
AcDbArc
 50
269.9999999999998
 51
0.0
  0
LINE
  5
C9
330
1F
100
AcDbEntity
  8
20
  6
Continuous
 62
    92
100
AcDbLine
 10
303.289711
 20
14.5
 30
0.0
 11
303.289711
 21
19.5
 31
0.0
  0
LINE
  5
CA
330
1F
100
AcDbEntity
  8
20
  6
Continuous
 62
    92
100
AcDbLine
 10
297.789711
 20
14.0
 30
0.0
 11
302.789711
 21
14.0
 31
0.0
  0
ARC
  5
CB
330
1F
100
AcDbEntity
  8
20
  6
Continuous
 62
    92
100
AcDbCircle
 10
297.789711
 20
14.5
 30
0.0
 40
0.5
100
AcDbArc
 50
179.9999999999998
 51
269.9999999999998
  0
LINE
  5
CC
330
1F
100
AcDbEntity
  8
20
  6
Continuous
 62
    92
100
AcDbLine
 10
297.289711
 20
19.5
 30
0.0
 11
297.289711
 21
14.5
 31
0.0
  0
ARC
  5
CD
330
1F
100
AcDbEntity
  8
20
  6
Continuous
 62
    92
100
AcDbCircle
 10
297.789711
 20
19.5
 30
0.0
 40
0.5
100
AcDbArc
 50
89.99999999999992
 51
179.9999999999996
  0
LINE
  5
CE
330
1F
100
AcDbEntity
  8
20
  6
Continuous
 62
    92
100
AcDbLine
 10
302.789711
 20
20.0
 30
0.0
 11
297.789711
 21
20.0
 31
0.0
  0
ARC
  5
CF
330
1F
100
AcDbEntity
  8
20
  6
Continuous
 62
    92
100
AcDbCircle
 10
302.789711
 20
19.5
 30
0.0
 40
0.5
100
AcDbArc
 50
0.0
 51
89.99999999999992
  0
ARC
  5
D0
330
1F
100
AcDbEntity
  8
20
  6
Continuous
 62
    92
100
AcDbCircle
 10
304.30589
 20
25.956856
 30
0.0
 40
11.0
100
AcDbArc
 50
230.3694709999988
 51
264.6994639999991
  0
ARC
  5
D1
330
1F
100
AcDbEntity
  8
20
  6
Continuous
 62
    92
100
AcDbCircle
 10
297.719396
 20
28.549794
 30
0.0
 40
11.0
100
AcDbArc
 50
267.7613269999991
 51
300.4238179999989
  0
TEXT
  5
D2
330
1F
100
AcDbEntity
  8
20
  6
Continuous
 62
    92
100
AcDbText
 10
295.0
 20
26.1
 30
0.0
 40
3.5
  1
名称
 41
1.142857
100
AcDbText
  0
LINE
  5
D3
330
1F
100
AcDbEntity
  8
20
  6
Continuous
 62
    92
100
AcDbLine
 10
373.0
 20
22.0
 30
0.0
 11
373.0
 21
12.0
 31
0.0
  0
LINE
  5
D4
330
1F
100
AcDbEntity
  8
20
  6
Continuous
 62
    92
100
AcDbLine
 10
293.0
 20
22.0
 30
0.0
 11
388.0
 21
22.0
 31
0.0
  0
TEXT
  5
D5
330
1F
100
AcDbEntity
  8
20
  6
Continuous
 62
    92
100
AcDbText
 10
376.0
 20
15.5
 30
0.0
 40
3.5
  1
Ａ３
 41
1.142857
100
AcDbText
  0
TEXT
  5
D6
330
1F
100
AcDbEntity
  8
20
  6
Continuous
 62
    92
100
AcDbText
 10
398.0
 20
9.96297
 30
0.0
 40
1.5
  1
２８０５Ｚ３
 41
0.9333329999999999
100
AcDbText
  0
TEXT
  5
D7
330
1F
100
AcDbEntity
  8
1
  6
Continuous
 62
     7
100
AcDbText
 10
388.9
 20
278.5
 30
0.0
 40
5.0
  1
＊＊＊
 41
0.8
100
AcDbText
  0
LINE
  5
D8
330
1F
100
AcDbEntity
  8
20
  6
Continuous
 62
    92
100
AcDbLine
 10
371.0
 20
277.5
 30
0.0
 11
408.0
 21
277.5
 31
0.0
  0
TEXT
  5
D9
330
1F
100
AcDbEntity
  8
20
  6
Continuous
 62
    92
100
AcDbText
 10
372.5
 20
278.2
 30
0.0
 40
1.5
  1
Ｓｅｒ．Ｎｏ．
 41
0.8000000000000002
100
AcDbText
  0
TEXT
  5
DA
330
1F
100
AcDbEntity
  8
20
  6
Continuous
 62
    92
100
AcDbText
 10
373.0
 20
280.0
 30
0.0
 40
3.5
  1
通番
 41
1.142857
100
AcDbText
  0
LINE
  5
DB
330
1F
100
AcDbEntity
  8
20
  6
Continuous
 62
    92
100
AcDbLine
 10
383.0
 20
285.0
 30
0.0
 11
383.0
 21
277.5
 31
0.0
  0
LINE
  5
DC
330
1F
100
AcDbEntity
  8
20
  6
Continuous
 62
    92
100
AcDbLine
 10
371.0
 20
285.0
 30
0.0
 11
371.0
 21
277.5
 31
0.0
  0
LINE
  5
DD
330
1F
100
AcDbEntity
  8
20
  6
Continuous
 62
    92
100
AcDbLine
 10
408.0
 20
12.0
 30
0.0
 11
408.0
 21
285.0
 31
0.0
  0
LINE
  5
DE
330
1F
100
AcDbEntity
  8
20
  6
Continuous
 62
    92
100
AcDbLine
 10
408.0
 20
285.0
 30
0.0
 11
25.0
 21
285.0
 31
0.0
  0
LINE
  5
DF
330
1F
100
AcDbEntity
  8
20
  6
Continuous
 62
    92
100
AcDbLine
 10
25.0
 20
12.0
 30
0.0
 11
408.0
 21
12.0
 31
0.0
  0
LINE
  5
E0
330
1F
100
AcDbEntity
  8
20
  6
Continuous
 62
    92
100
AcDbLine
 10
25.0
 20
285.0
 30
0.0
 11
25.0
 21
12.0
 31
0.0
  0
TEXT
  5
E1
330
1F
100
AcDbEntity
  8
20
  6
Continuous
 62
    92
100
AcDbText
 10
393.092977
 20
16.789645
 30
0.0
 40
4.0
  1
菊地
 41
1.25
100
AcDbText
  0
TEXT
  5
E2
330
1F
100
AcDbEntity
  8
1
  6
Continuous
 62
     7
100
AcDbText
 10
318.3035460992908
 20
32.87517730496454
 30
0.0
 40
3.0
  1
’１０．７．２２
100
AcDbText
  0
TEXT
  5
E3
330
1F
100
AcDbEntity
  8
1
  6
S1C_PATTERN
 62
     7
100
AcDbText
 10
308.0
 20
24.0
 30
0.0
 40
5.0
  1
SC-200HJ 外観図
 41
0.9722222222222222
100
AcDbText
  0
TEXT
  5
E4
330
1F
100
AcDbEntity
  8
1
  6
Continuous
 62
     7
100
AcDbText
 10
366.0
 20
32.684421
 30
0.0
 40
4.0
  1
１／1
 41
1.041666666666667
100
AcDbText
  0
LINE
  5
E5
330
1F
100
AcDbEntity
  8
2
  6
Continuous
 62
   132
100
AcDbLine
 10
195.7047457389613
 20
129.745893208957
 30
0.0
 11
203.7119670491885
 21
99.86253641141195
 31
0.0
  0
ARC
  5
E6
330
1F
100
AcDbEntity
  8
2
  6
Continuous
 62
   132
100
AcDbCircle
 10
200.8141895700593
 20
99.08607927708209
 30
0.0
 40
3.0
100
AcDbArc
 50
300.0000000739614
 51
14.99999998066851
  0
LINE
  5
E7
330
1F
100
AcDbEntity
  8
2
  6
Continuous
 62
   132
100
AcDbLine
 10
202.3141895734131
 20
96.48800306766509
 30
0.0
 11
182.3955271401119
 21
84.9879579156183
 31
0.0
  0
ARC
  5
E8
330
1F
100
AcDbEntity
  8
2
  6
Continuous
 62
   132
100
AcDbCircle
 10
180.8955271367582
 20
87.58603412503533
 30
0.0
 40
3.0
100
AcDbArc
 50
269.9999999999998
 51
300.0000000739606
  0
ARC
  5
E9
330
1F
100
AcDbEntity
  8
2
  6
Continuous
 62
   132
100
AcDbCircle
 10
75.52093327180461
 20
87.58603412505212
 30
0.0
 40
3.0
100
AcDbArc
 50
194.9999998394137
 51
269.9999999999998
  0
LINE
  5
EA
330
1F
100
AcDbEntity
  8
2
  6
Continuous
 62
   132
100
AcDbLine
 10
180.8955271367582
 20
84.5860341250353
 30
0.0
 11
75.52093327180461
 21
84.58603412503533
 31
0.0
  0
LINE
  5
EB
330
1F
100
AcDbEntity
  8
2
  6
Continuous
 62
   132
100
AcDbLine
 10
70.13340947256847
 20
96.10307068943143
 30
0.0
 11
195.7037668108565
 21
129.7495466183719
 31
0.0
  0
LINE
  5
EC
330
1F
100
AcDbEntity
  8
2
  6
Continuous
 62
   132
100
AcDbLine
 10
72.62315579076119
 20
86.80957699786632
 30
0.0
 11
70.13300101508719
 21
96.10296124358041
 31
0.0
  0
LINE
  5
ED
330
1F
100
AcDbEntity
  8
1
  6
Continuous
 62
     7
100
AcDbLine
 10
135.6697780203305
 20
118.1151753823128
 30
0.0
 11
127.9423714100179
 21
116.0446230214926
 31
0.0
  0
ARC
  5
EE
330
1F
100
AcDbEntity
  8
1
  6
Continuous
 62
     7
100
AcDbCircle
 10
128.0717809325692
 20
115.5616601083481
 30
0.0
 40
0.5
100
AcDbArc
 50
105.0000000000079
 51
195.0000000000027
  0
ARC
  5
EF
330
1F
100
AcDbEntity
  8
1
  6
Continuous
 62
     7
100
AcDbCircle
 10
135.7991875428818
 20
117.6322124691682
 30
0.0
 40
0.5
100
AcDbArc
 50
14.99999999999445
 51
105.0000000000071
  0
DIMENSION
  5
FB
330
1F
100
AcDbEntity
  8
2
  6
Continuous
 62
   132
100
AcDbDimension
  2
Dim1
 10
209.145477538919
 20
129.7496559704827
 30
0.0
 11
207.1454774564838
 21
104.6678450832025
 31
0.0
 70
   160
  1
<>
 71
     5
 42
-1.0
  3
Standard
100
AcDbAlignedDimension
 13
195.7041754627287
 23
129.7496560146597
 33
0.0
 14
195.7041752978582
 24
79.58603422695265
 34
0.0
 50
89.99999981168843
100
AcDbRotatedDimension
1001
ACAD
1000
DSTYLE
1002
{
1070
   344
1005
3C
1070
   343
1005
3C
1070
   173
1070
     1
1070
   289
1070
     2
1070
   279
1070
     2
1070
   288
1070
     1
1070
    77
1070
     3
1070
   172
1070
     1
1070
   174
1070
     0
1070
    74
1070
     0
1070
    73
1070
     0
1070
   284
1070
     8
1070
    78
1070
     8
1070
   140
1040
4.0
1070
    40
1040
1.0
1070
    42
1040
2.0
1070
    44
1040
2.0
1070
    43
1040
10.0
1070
   271
1070
     2
1070
    41
1040
4.0
1002
}
  0
LINE
  5
FC
330
1F
100
AcDbEntity
  8
2
  6
Continuous
 62
   132
100
AcDbLine
 10
70.06982817602628
 20
131.7496555456449
 30
0.0
 11
70.06982823835702
 21
98.04620842810431
 31
0.0
  0
DIMENSION
  5
108
330
1F
100
AcDbEntity
  8
2
  6
Continuous
 62
   132
100
AcDbDimension
  2
Dim2
 10
70.06982812532701
 20
137.749655577321
 30
0.0
 11
136.941924033397
 21
139.7496557985012
 31
0.0
 70
   160
  1
<>
 71
     5
 42
-1.0
  3
Standard
100
AcDbAlignedDimension
 13
70.06982815178711
 23
129.7496555456449
 33
0.0
 14
203.8140199811572
 24
129.7496559880054
 34
0.0
 50
0.0000001895064647
100
AcDbRotatedDimension
1001
ACAD
1000
DSTYLE
1002
{
1070
   344
1005
3C
1070
   343
1005
3C
1070
   173
1070
     1
1070
   289
1070
     2
1070
   279
1070
     2
1070
   288
1070
     1
1070
    77
1070
     3
1070
   172
1070
     1
1070
   174
1070
     0
1070
    74
1070
     0
1070
    73
1070
     0
1070
   284
1070
     8
1070
    78
1070
     8
1070
   140
1040
4.0
1070
    40
1040
1.0
1070
    42
1040
2.0
1070
    44
1040
2.0
1070
    43
1040
10.0
1070
   271
1070
     2
1070
    41
1040
4.0
1002
}
  0
LINE
  5
109
330
1F
100
AcDbEntity
  8
2
  6
Continuous
 62
   132
100
AcDbLine
 10
203.8140199960073
 20
131.9226823080937
 30
0.0
 11
203.8140200846485
 21
102.4793608457741
 31
0.0
  0
ARC
  5
10A
330
1F
100
AcDbEntity
  8
2
  6
Continuous
 62
   132
100
AcDbCircle
 10
90.53857503587111
 20
80.58603380770302
 30
0.0
 40
1.0
100
AcDbArc
 50
269.9999999999998
 51
357.7093899573634
  0
LINE
  5
10B
330
1F
100
AcDbEntity
  8
2
  6
Continuous
 62
   132
100
AcDbLine
 10
91.53777599459292
 20
80.54606576935419
 30
0.0
 11
91.69937471612693
 21
84.58603380770288
 31
0.0
  0
LINE
  5
10C
330
1F
100
AcDbEntity
  8
2
  6
Continuous
 62
   132
100
AcDbLine
 10
82.86017439379745
 20
79.58603380770302
 30
0.0
 11
90.53857503587111
 21
79.58603380770302
 31
0.0
  0
ARC
  5
10D
330
1F
100
AcDbEntity
  8
2
  6
Continuous
 62
   132
100
AcDbCircle
 10
82.86017439379745
 20
80.58603380770305
 30
0.0
 40
1.0
100
AcDbArc
 50
182.2906101966729
 51
269.9999999999998
  0
LINE
  5
10E
330
1F
100
AcDbEntity
  8
2
  6
Continuous
 62
   132
100
AcDbLine
 10
81.69937471612693
 20
84.58603347111006
 30
0.0
 11
81.8609734351831
 21
80.54606576666791
 31
0.0
  0
ARC
  5
10F
330
1F
100
AcDbEntity
  8
2
  6
Continuous
 62
   132
100
AcDbCircle
 10
175.5385750358712
 20
80.58603412503533
 30
0.0
 40
1.0
100
AcDbArc
 50
269.9999999999964
 51
357.70938995736
  0
LINE
  5
110
330
1F
100
AcDbEntity
  8
2
  6
Continuous
 62
   132
100
AcDbLine
 10
176.5377759945929
 20
80.54606608668644
 30
0.0
 11
176.699374716127
 21
84.58603412503516
 31
0.0
  0
LINE
  5
111
330
1F
100
AcDbEntity
  8
2
  6
Continuous
 62
   132
100
AcDbLine
 10
167.8601743937975
 20
79.58603412503533
 30
0.0
 11
175.5385750358711
 21
79.58603412503533
 31
0.0
  0
ARC
  5
112
330
1F
100
AcDbEntity
  8
2
  6
Continuous
 62
   132
100
AcDbCircle
 10
167.8601743937975
 20
80.58603412503533
 30
0.0
 40
1.0
100
AcDbArc
 50
182.290610196673
 51
269.9999999999998
  0
LINE
  5
113
330
1F
100
AcDbEntity
  8
2
  6
Continuous
 62
   132
100
AcDbLine
 10
166.699374716127
 20
84.58603378844231
 30
0.0
 11
166.8609734351831
 21
80.54606608400019
 31
0.0
  0
ARC
  5
114
330
1F
100
AcDbEntity
  8
1
  6
Continuous
 62
     7
100
AcDbCircle
 10
158.5852763327285
 20
130.8274376670871
 30
0.0
 40
0.5
100
AcDbArc
 50
77.42999999999864
 51
167.4299999999994
  0
LINE
  5
115
330
1F
100
AcDbEntity
  8
1
  6
Continuous
 62
     7
100
AcDbLine
 10
158.6940924440764
 20
131.3154530909326
 30
0.0
 11
162.5982158348406
 21
130.44492420015
 31
0.0
  0
ARC
  5
116
330
1F
100
AcDbEntity
  8
1
  6
Continuous
 62
     7
100
AcDbCircle
 10
162.4849833682349
 20
129.9586630233785
 30
0.0
 40
0.5
100
AcDbArc
 50
347.4515414975792
 51
77.45154149758132
  0
LINE
  5
117
330
1F
100
AcDbEntity
  8
2
  6
Continuous
 62
   132
100
AcDbLine
 10
71.56871205750011
 20
159.5860337579193
 30
0.0
 11
203.8140200413192
 21
159.5860337579193
 31
0.0
  0
LINE
  5
118
330
1F
100
AcDbEntity
  8
2
  6
Continuous
 62
   132
100
AcDbLine
 10
70.06982818358884
 20
234.9860338311545
 30
0.0
 11
70.06982818358884
 21
164.1860334022318
 31
0.0
  0
LINE
  5
119
330
1F
100
AcDbEntity
  8
2
  6
Continuous
 62
   132
100
AcDbLine
 10
203.8140200413192
 20
239.5860337579193
 30
0.0
 11
71.56871215182707
 21
239.5860337579193
 31
0.0
  0
LINE
  5
11A
330
1F
100
AcDbEntity
  8
2
  6
Continuous
 62
   132
100
AcDbLine
 10
203.8140200413192
 20
159.5860337579193
 30
0.0
 11
203.8140200413192
 21
239.5860337579193
 31
0.0
  0
ELLIPSE
  5
11B
330
1F
100
AcDbEntity
  8
2
  6
Continuous
 62
   132
100
AcDbEllipse
 10
71.56871202010123
 20
164.1860335006505
 30
0.0
 11
1.304733785150843E-7
 21
-4.599999945152439
 31
0.0
210
0.0
220
0.0
230
1.0
 40
0.3256017177498529
 41
4.712388992544783
 42
6.283185245037448
  0
ELLIPSE
  5
11C
330
1F
100
AcDbEntity
  8
2
  6
Continuous
 62
   132
100
AcDbEllipse
 10
71.56871210358059
 20
234.9860337292037
 30
0.0
 11
1.413209792477516E-7
 21
4.599999945152439
 31
0.0
210
0.0
220
0.0
230
0.9999999999999999
 40
0.3256017177498528
 41
0.0000000621421383
 42
1.570796314634803
  0
ELLIPSE
  5
11D
330
1F
100
AcDbEntity
  8
2
  6
Continuous
 62
   132
100
AcDbEllipse
 10
197.2036295754737
 20
164.1860335006505
 30
0.0
 11
1.304733785150843E-7
 21
-4.599999945152439
 31
0.0
210
0.0
220
0.0
230
1.0
 40
0.3256017177498529
 41
4.712388992544783
 42
6.283185245037448
  0
LINE
  5
11E
330
1F
100
AcDbEntity
  8
2
  6
Continuous
 62
   132
100
AcDbLine
 10
195.7047457187689
 20
234.9860338311552
 30
0.0
 11
195.7047457591537
 21
164.1860329021115
 31
0.0
  0
ELLIPSE
  5
11F
330
1F
100
AcDbEntity
  8
2
  6
Continuous
 62
   132
100
AcDbEllipse
 10
197.2036296589531
 20
234.9860337292038
 30
0.0
 11
1.413209792477516E-7
 21
4.599999945152439
 31
0.0
210
0.0
220
0.0
230
0.9999999999999999
 40
0.3256017177498528
 41
0.0000000621421383
 42
1.570796314634803
  0
ELLIPSE
  5
120
330
1F
100
AcDbEntity
  8
2
  6
Continuous
 62
   132
100
AcDbEllipse
 10
151.8933607578901
 20
194.5860346683573
 30
0.0
 11
1.615542552166338E-14
 21
10.0
 31
0.0
210
0.0
220
0.0
230
1.0
 40
0.9659257663729719
 41
0.0000000639221984
 42
3.141592589667604
  0
INSERT
  5
13D
330
1F
100
AcDbEntity
  8
0
100
AcDbBlockReference
  2
*G14
 10
0.0
 20
0.0
 30
0.0
  0
INSERT
  5
145
330
1F
100
AcDbEntity
  8
0
100
AcDbBlockReference
  2
*G15
 10
0.0
 20
0.0
 30
0.0
  0
TEXT
  5
146
330
1F
100
AcDbEntity
  8
4
  6
Continuous
 62
    52
100
AcDbText
 10
138.8341030277531
 20
229.2860337753749
 30
0.0
 40
2.8
  1
ＳＥＴ
 50
-89.99999999999992
 41
1.071428571428572
100
AcDbText
  0
INSERT
  5
1A2
330
1F
100
AcDbEntity
  8
0
100
AcDbBlockReference
  2
*G16
 10
0.0
 20
0.0
 30
0.0
  0
CIRCLE
  5
1A3
330
1F
100
AcDbEntity
  8
2
  6
Continuous
 62
   132
100
AcDbCircle
 10
155.2707681220351
 20
194.5860328474814
 30
0.0
 40
2.5
  0
ELLIPSE
  5
1A4
330
1F
100
AcDbEntity
  8
2
  6
Continuous
 62
   132
100
AcDbEllipse
 10
152.2341036448103
 20
194.5860337579193
 30
0.0
 11
1.615542552166338E-14
 21
10.0
 31
0.0
210
0.0
220
0.0
230
1.0
 40
0.9659257663729719
 41
3.141592589707789
 42
6.283185371062031
  0
ELLIPSE
  5
1A5
330
1F
100
AcDbEntity
  8
2
  6
Continuous
 62
   132
100
AcDbEllipse
 10
152.2341036448103
 20
194.5860337579193
 30
0.0
 11
1.615542552166338E-14
 21
10.0
 31
0.0
210
0.0
220
0.0
230
1.0
 40
0.9659257663729719
 41
0.0000000638824451
 42
3.141592589707789
  0
LINE
  5
1A6
330
1F
100
AcDbEntity
  8
2
  6
Continuous
 62
   132
100
AcDbLine
 10
142.4629537134357
 20
207.525708027822
 30
0.0
 11
143.5729537134357
 21
207.525708027822
 31
0.0
  0
ARC
  5
1A7
330
1F
100
AcDbEntity
  8
2
  6
Continuous
 62
   132
100
AcDbCircle
 10
143.5729537134353
 20
210.025708027822
 30
0.0
 40
2.5
100
AcDbArc
 50
270.0000000000075
 51
29.99999520162932
  0
LINE
  5
1A8
330
1F
100
AcDbEntity
  8
2
  6
Continuous
 62
   132
100
AcDbLine
 10
140.4628847679196
 20
215.9897700796578
 30
0.0
 11
141.5728847679193
 21
215.9897700796578
 31
0.0
  0
ARC
  5
1A9
330
1F
100
AcDbEntity
  8
2
  6
Continuous
 62
   132
100
AcDbCircle
 10
141.5728847679193
 20
213.4897700796578
 30
0.0
 40
2.5
100
AcDbArc
 50
30.00000423309205
 51
89.99999999999155
  0
LINE
  5
1AA
330
1F
100
AcDbEntity
  8
2
  6
Continuous
 62
   132
100
AcDbLine
 10
138.2959987049375
 20
212.2387179490476
 30
0.0
 11
140.2978902039742
 21
208.775708027822
 31
0.0
  0
LINE
  5
1AB
330
1F
100
AcDbEntity
  8
2
  6
Continuous
 62
   132
100
AcDbLine
 10
143.7379482177757
 20
214.7397701828962
 30
0.0
 11
145.7380172228964
 21
211.2757080278221
 31
0.0
  0
DIMENSION
  5
1B7
330
1F
100
AcDbEntity
  8
2
  6
Continuous
 62
   132
100
AcDbDimension
  2
Dim3
 10
211.8140200413192
 20
159.5860337579193
 30
0.0
 11
209.8140200413192
 21
199.5860337579193
 31
0.0
 70
   160
  1
<>
 71
     5
 42
-1.0
  3
Standard
100
AcDbAlignedDimension
 13
203.8140200413192
 23
159.5860337579193
 33
0.0
 14
203.8140200413192
 24
239.5860337579193
 34
0.0
 50
89.99999999999992
100
AcDbRotatedDimension
1001
ACAD
1000
DSTYLE
1002
{
1070
   344
1005
3C
1070
   343
1005
3C
1070
   173
1070
     1
1070
   289
1070
     2
1070
   279
1070
     2
1070
   288
1070
     1
1070
    77
1070
     3
1070
   172
1070
     1
1070
   174
1070
     0
1070
    74
1070
     0
1070
    73
1070
     0
1070
   284
1070
     8
1070
    78
1070
     8
1070
   140
1040
4.0
1070
    40
1040
1.0
1070
    42
1040
2.0
1070
    44
1040
2.0
1070
    43
1040
10.0
1070
   271
1070
     2
1070
    41
1040
4.0
1002
}
  0
LINE
  5
1B8
330
1F
100
AcDbEntity
  8
2
  6
Continuous
 62
   132
100
AcDbLine
 10
200.2419953653679
 20
191.0860337579193
 30
0.0
 11
196.1179335560479
 21
191.0860337579193
 31
0.0
  0
LINE
  5
1B9
330
1F
100
AcDbEntity
  8
2
  6
Continuous
 62
   132
100
AcDbLine
 10
196.1178586665474
 20
208.0860337579194
 30
0.0
 11
200.241995365368
 21
208.0860337579193
 31
0.0
  0
LINE
  5
1BA
330
1F
100
AcDbEntity
  8
2
  6
Continuous
 62
   132
100
AcDbLine
 10
200.041995365368
 20
208.0860337579193
 30
0.0
 11
200.0419953653679
 21
191.0860337579193
 31
0.0
  0
LINE
  5
1BB
330
1F
100
AcDbEntity
  8
2
  6
Continuous
 62
   132
100
AcDbLine
 10
200.241995365368
 20
208.0860337579193
 30
0.0
 11
200.2419953653679
 21
191.0860337579193
 31
0.0
  0
ELLIPSE
  5
1BC
330
1F
100
AcDbEntity
  8
2
  6
Continuous
 62
   132
100
AcDbEllipse
 10
197.6177402017724
 20
234.9860333637507
 30
0.0
 11
7.678468334968179E-8
 21
3.000000255871745
 31
0.0
210
0.0
220
0.0
230
1.0
 40
0.4999999730140859
 41
0.0000000486669866
 42
1.570796368509818
  0
ELLIPSE
  5
1BD
330
1F
100
AcDbEntity
  8
2
  6
Continuous
 62
   132
100
AcDbEllipse
 10
197.617740118293
 20
164.1860338651271
 30
0.0
 11
6.971016044498254E-8
 21
-3.000000255871745
 31
0.0
210
0.0
220
0.0
230
0.9999999999999999
 40
0.4999999730140859
 41
4.712388938669768
 42
6.283185258512599
  0
LINE
  5
1BE
330
1F
100
AcDbEntity
  8
2
  6
Continuous
 62
   132
100
AcDbLine
 10
196.1180521836934
 20
164.1574261444894
 30
0.0
 11
196.1177401649261
 21
234.9860337411146
 31
0.0
  0
LINE
  5
1BF
330
1F
100
AcDbEntity
  8
2
  6
Continuous
 62
   132
100
AcDbLine
 10
197.6177406068699
 20
237.9860339650433
 30
0.0
 11
203.8140200413192
 21
237.9860339489832
 31
0.0
  0
LINE
  5
1C0
330
1F
100
AcDbEntity
  8
2
  6
Continuous
 62
   132
100
AcDbLine
 10
203.8140200413192
 20
161.1860329471235
 30
0.0
 11
197.49893716674
 21
161.1860329120705
 31
0.0
  0
ARC
  5
1C1
330
1F
100
AcDbEntity
  8
2
  6
Continuous
 62
   132
100
AcDbCircle
 10
142.4629537134353
 20
210.025708027822
 30
0.0
 40
2.5
100
AcDbArc
 50
210.0000037935909
 51
272.4544106228576
  0
ARC
  5
1C2
330
1F
100
AcDbEntity
  8
2
  6
Continuous
 62
   132
100
AcDbCircle
 10
140.4628847679192
 20
213.4897700796578
 30
0.0
 40
2.5
100
AcDbArc
 50
89.99999999998958
 51
209.9999975973479
  0
ARC
  5
1C3
330
1F
100
AcDbEntity
  8
2
  6
Continuous
 62
   132
100
AcDbCircle
 10
142.4629537134353
 20
210.025708027822
 30
0.0
 40
2.5
100
AcDbArc
 50
272.4544106228576
 51
29.99999520162899
  0
ARC
  5
1C4
330
1F
100
AcDbEntity
  8
2
  6
Continuous
 62
   132
100
AcDbCircle
 10
140.4628847679192
 20
213.4897700796578
 30
0.0
 40
2.5
100
AcDbArc
 50
30.00000423309238
 51
89.99999999998958
  0
LINE
  5
1C5
330
1F
100
AcDbEntity
  8
2
  6
Continuous
 62
   132
100
AcDbLine
 10
142.6279482177757
 20
214.7397701828962
 30
0.0
 11
144.6280172228964
 21
211.2757080278221
 31
0.0
  0
LINE
  5
1C6
330
1F
100
AcDbEntity
  8
1
  6
Continuous
 62
     7
100
AcDbLine
 10
127.5888180194247
 20
115.4322505857968
 30
0.0
 11
128.5723304031777
 21
111.7617323997574
 31
0.0
  0
LINE
  5
1C7
330
1F
100
AcDbEntity
  8
1
  6
Continuous
 62
     7
100
AcDbLine
 10
137.2656628382759
 20
114.0911038112906
 30
0.0
 11
136.2821504560263
 21
117.7616219917194
 31
0.0
  0
LINE
  5
1C8
330
1F
100
AcDbEntity
  8
1
  6
Continuous
 62
     7
100
AcDbLine
 10
160.8733638256066
 20
120.416768242331
 30
0.0
 11
162.973039669188
 21
129.8500303989046
 31
0.0
  0
LINE
  5
1C9
330
1F
100
AcDbEntity
  8
1
  6
Continuous
 62
     7
100
AcDbLine
 10
155.4262118243343
 20
118.9572082587727
 30
0.0
 11
158.097260908883
 21
130.936253778435
 31
0.0
  0
POLYLINE
  5
1CA
330
1F
100
AcDbEntity
  8
22
  6
Continuous
 62
     7
100
AcDb2dPolyline
 66
     1
 10
0.0
 20
0.0
 30
0.0
  0
VERTEX
  5
1CC
330
1CA
100
AcDbEntity
  8
22
  6
Continuous
 62
     7
100
AcDbVertex
100
AcDb2dVertex
 10
316.3217021276596
 20
237.9860337579193
 30
0.0
  0
VERTEX
  5
1CD
330
1CA
100
AcDbEntity
  8
22
  6
Continuous
 62
     7
100
AcDbVertex
100
AcDb2dVertex
 10
316.3217021276596
 20
239.5860337579193
 30
0.0
  0
VERTEX
  5
1CE
330
1CA
100
AcDbEntity
  8
22
  6
Continuous
 62
     7
100
AcDbVertex
100
AcDb2dVertex
 10
271.1617021276596
 20
239.5860337579193
 30
0.0
  0
VERTEX
  5
1CF
330
1CA
100
AcDbEntity
  8
22
  6
Continuous
 62
     7
100
AcDbVertex
100
AcDb2dVertex
 10
271.1617021276596
 20
159.5860337579193
 30
0.0
  0
VERTEX
  5
1D0
330
1CA
100
AcDbEntity
  8
22
  6
Continuous
 62
     7
100
AcDbVertex
100
AcDb2dVertex
 10
316.3217021276596
 20
159.5860337579193
 30
0.0
  0
VERTEX
  5
1D1
330
1CA
100
AcDbEntity
  8
22
  6
Continuous
 62
     7
100
AcDbVertex
100
AcDb2dVertex
 10
316.3217021276596
 20
161.1860337579194
 30
0.0
  0
VERTEX
  5
1D2
330
1CA
100
AcDbEntity
  8
22
  6
Continuous
 62
     7
100
AcDbVertex
100
AcDb2dVertex
 10
272.7617021276596
 20
161.1860337579194
 30
0.0
  0
VERTEX
  5
1D3
330
1CA
100
AcDbEntity
  8
22
  6
Continuous
 62
     7
100
AcDbVertex
100
AcDb2dVertex
 10
272.7617021276596
 20
237.9860337579193
 30
0.0
  0
VERTEX
  5
1D4
330
1CA
100
AcDbEntity
  8
22
  6
Continuous
 62
     7
100
AcDbVertex
100
AcDb2dVertex
 10
316.3217021276596
 20
237.9860337579193
 30
0.0
  0
SEQEND
  5
1CB
330
1CA
100
AcDbEntity
  8
22
  6
Continuous
  0
POLYLINE
  5
1D5
330
1F
100
AcDbEntity
  8
22
  6
Continuous
 62
     7
100
AcDb2dPolyline
 66
     1
 10
0.0
 20
0.0
 30
0.0
  0
VERTEX
  5
1D7
330
1D5
100
AcDbEntity
  8
22
  6
Continuous
 62
     7
100
AcDbVertex
100
AcDb2dVertex
 10
272.6617021276596
 20
161.1860337579194
 30
0.0
  0
VERTEX
  5
1D8
330
1D5
100
AcDbEntity
  8
22
  6
Continuous
 62
     7
100
AcDbVertex
100
AcDb2dVertex
 10
316.3217021276596
 20
161.1860337579194
 30
0.0
  0
VERTEX
  5
1D9
330
1D5
100
AcDbEntity
  8
22
  6
Continuous
 62
     7
100
AcDbVertex
100
AcDb2dVertex
 10
316.3217021276596
 20
238.0860337579193
 30
0.0
  0
VERTEX
  5
1DA
330
1D5
100
AcDbEntity
  8
22
  6
Continuous
 62
     7
100
AcDbVertex
100
AcDb2dVertex
 10
272.6617021276596
 20
238.0860337579193
 30
0.0
  0
VERTEX
  5
1DB
330
1D5
100
AcDbEntity
  8
22
  6
Continuous
 62
     7
100
AcDbVertex
100
AcDb2dVertex
 10
272.6617021276596
 20
161.1860337579194
 30
0.0
  0
SEQEND
  5
1D6
330
1D5
100
AcDbEntity
  8
22
  6
Continuous
  0
POLYLINE
  5
1DC
330
1F
100
AcDbEntity
  8
22
  6
Continuous
 62
     7
100
AcDb2dPolyline
 66
     1
 10
0.0
 20
0.0
 30
0.0
  0
VERTEX
  5
1DE
330
1DC
100
AcDbEntity
  8
22
  6
Continuous
 62
     7
100
AcDbVertex
100
AcDb2dVertex
 10
284.6817021276596
 20
192.4210337579194
 30
0.0
  0
VERTEX
  5
1DF
330
1DC
100
AcDbEntity
  8
22
  6
Continuous
 62
     7
100
AcDbVertex
100
AcDb2dVertex
 10
284.6817021276596
 20
206.8510337579193
 30
0.0
  0
VERTEX
  5
1E0
330
1DC
100
AcDbEntity
  8
22
  6
Continuous
 62
     7
100
AcDbVertex
100
AcDb2dVertex
 10
272.6617021276596
 20
206.8510337579193
 30
0.0
  0
VERTEX
  5
1E1
330
1DC
100
AcDbEntity
  8
22
  6
Continuous
 62
     7
100
AcDbVertex
100
AcDb2dVertex
 10
272.6617021276596
 20
192.4210337579194
 30
0.0
  0
VERTEX
  5
1E2
330
1DC
100
AcDbEntity
  8
22
  6
Continuous
 62
     7
100
AcDbVertex
100
AcDb2dVertex
 10
284.6817021276596
 20
192.4210337579194
 30
0.0
  0
SEQEND
  5
1DD
330
1DC
100
AcDbEntity
  8
22
  6
Continuous
  0
POLYLINE
  5
1E3
330
1F
100
AcDbEntity
  8
22
  6
Continuous
 62
     7
100
AcDb2dPolyline
 66
     1
 10
0.0
 20
0.0
 30
0.0
  0
VERTEX
  5
1E5
330
1E3
100
AcDbEntity
  8
22
  6
Continuous
 62
     7
100
AcDbVertex
100
AcDb2dVertex
 10
273.2676231276596
 20
197.4217427579193
 30
0.0
  0
VERTEX
  5
1E6
330
1E3
100
AcDbEntity
  8
22
  6
Continuous
 62
     7
100
AcDbVertex
100
AcDb2dVertex
 10
273.2676231276596
 20
202.0303247579194
 30
0.0
  0
VERTEX
  5
1E7
330
1E3
100
AcDbEntity
  8
22
  6
Continuous
 62
     7
100
AcDbVertex
100
AcDb2dVertex
 10
274.8688321276596
 20
202.0303247579194
 30
0.0
  0
VERTEX
  5
1E8
330
1E3
100
AcDbEntity
  8
22
  6
Continuous
 62
     7
100
AcDbVertex
100
AcDb2dVertex
 10
274.8688321276596
 20
203.6333097579193
 30
0.0
  0
VERTEX
  5
1E9
330
1E3
100
AcDbEntity
  8
22
  6
Continuous
 62
     7
100
AcDbVertex
100
AcDb2dVertex
 10
276.4700401276596
 20
203.6333097579193
 30
0.0
  0
VERTEX
  5
1EA
330
1E3
100
AcDbEntity
  8
22
  6
Continuous
 62
     7
100
AcDbVertex
100
AcDb2dVertex
 10
276.4700401276596
 20
205.2362947579193
 30
0.0
  0
VERTEX
  5
1EB
330
1E3
100
AcDbEntity
  8
22
  6
Continuous
 62
     7
100
AcDbVertex
100
AcDb2dVertex
 10
284.0757811276596
 20
205.2362947579193
 30
0.0
  0
VERTEX
  5
1EC
330
1E3
100
AcDbEntity
  8
22
  6
Continuous
 62
     7
100
AcDbVertex
100
AcDb2dVertex
 10
284.0757811276596
 20
194.2157727579193
 30
0.0
  0
VERTEX
  5
1ED
330
1E3
100
AcDbEntity
  8
22
  6
Continuous
 62
     7
100
AcDbVertex
100
AcDb2dVertex
 10
276.4700401276596
 20
194.2157727579193
 30
0.0
  0
VERTEX
  5
1EE
330
1E3
100
AcDbEntity
  8
22
  6
Continuous
 62
     7
100
AcDbVertex
100
AcDb2dVertex
 10
276.4700401276596
 20
195.8187577579193
 30
0.0
  0
VERTEX
  5
1EF
330
1E3
100
AcDbEntity
  8
22
  6
Continuous
 62
     7
100
AcDbVertex
100
AcDb2dVertex
 10
274.8688321276596
 20
195.8187577579193
 30
0.0
  0
VERTEX
  5
1F0
330
1E3
100
AcDbEntity
  8
22
  6
Continuous
 62
     7
100
AcDbVertex
100
AcDb2dVertex
 10
274.8688321276596
 20
197.4217427579193
 30
0.0
  0
VERTEX
  5
1F1
330
1E3
100
AcDbEntity
  8
22
  6
Continuous
 62
     7
100
AcDbVertex
100
AcDb2dVertex
 10
273.2676231276596
 20
197.4217427579193
 30
0.0
  0
SEQEND
  5
1E4
330
1E3
100
AcDbEntity
  8
22
  6
Continuous
  0
LINE
  5
1F2
330
1F
100
AcDbEntity
  8
22
  6
Continuous
 62
     7
100
AcDbLine
 10
303.6617021276596
 20
238.0860337579193
 30
0.0
 11
303.6617021276596
 21
161.1860337579194
 31
0.0
  0
POLYLINE
  5
1F3
330
1F
100
AcDbEntity
  8
22
  6
Continuous
 62
     7
100
AcDb2dPolyline
 66
     1
 10
0.0
 20
0.0
 30
0.0
  0
VERTEX
  5
1F5
330
1F3
100
AcDbEntity
  8
22
  6
Continuous
 62
     7
100
AcDbVertex
100
AcDb2dVertex
 10
316.3217021276596
 20
170.6860337579194
 30
0.0
  0
VERTEX
  5
1F6
330
1F3
100
AcDbEntity
  8
22
  6
Continuous
 62
     7
100
AcDbVertex
100
AcDb2dVertex
 10
316.3217021276596
 20
162.6860337579194
 30
0.0
  0
VERTEX
  5
1F7
330
1F3
100
AcDbEntity
  8
22
  6
Continuous
 62
     7
100
AcDbVertex
100
AcDb2dVertex
 10
316.3217021276596
 20
161.1860337579194
 30
0.0
  0
VERTEX
  5
1F8
330
1F3
100
AcDbEntity
  8
22
  6
Continuous
 62
     7
100
AcDbVertex
100
AcDb2dVertex
 10
317.8217021276596
 20
161.1860337579194
 30
0.0
  0
VERTEX
  5
1F9
330
1F3
100
AcDbEntity
  8
22
  6
Continuous
 62
     7
100
AcDbVertex
100
AcDb2dVertex
 10
319.6617021276596
 20
161.1860337579194
 30
0.0
  0
VERTEX
  5
1FA
330
1F3
100
AcDbEntity
  8
22
  6
Continuous
 62
     7
100
AcDbVertex
100
AcDb2dVertex
 10
319.8217021276596
 20
161.1860337579194
 30
0.0
  0
SEQEND
  5
1F4
330
1F3
100
AcDbEntity
  8
22
  6
Continuous
  0
ARC
  5
1FB
330
1F
100
AcDbEntity
  8
22
  6
Continuous
 62
     7
100
AcDbCircle
 10
319.8217032482734
 20
162.6860326373052
 30
0.0
 40
1.499998879386332
100
AcDbArc
 50
269.9999999999998
 51
0.000042804338157
  0
POLYLINE
  5
1FC
330
1F
100
AcDbEntity
  8
22
  6
Continuous
 62
     7
100
AcDb2dPolyline
 66
     1
 10
0.0
 20
0.0
 30
0.0
  0
VERTEX
  5
1FE
330
1FC
100
AcDbEntity
  8
22
  6
Continuous
 62
     7
100
AcDbVertex
100
AcDb2dVertex
 10
321.3217021276596
 20
162.6860337579194
 30
0.0
  0
VERTEX
  5
1FF
330
1FC
100
AcDbEntity
  8
22
  6
Continuous
 62
     7
100
AcDbVertex
100
AcDb2dVertex
 10
321.3217021276596
 20
170.6860337579194
 30
0.0
  0
SEQEND
  5
1FD
330
1FC
100
AcDbEntity
  8
22
  6
Continuous
  0
ARC
  5
200
330
1F
100
AcDbEntity
  8
22
  6
Continuous
 62
     7
100
AcDbCircle
 10
319.8217032482723
 20
170.6860348785331
 30
0.0
 40
1.49999887938771
100
AcDbArc
 50
359.9999571956745
 51
89.99999999999992
  0
POLYLINE
  5
201
330
1F
100
AcDbEntity
  8
22
  6
Continuous
 62
     7
100
AcDb2dPolyline
 66
     1
 10
0.0
 20
0.0
 30
0.0
  0
VERTEX
  5
203
330
201
100
AcDbEntity
  8
22
  6
Continuous
 62
     7
100
AcDbVertex
100
AcDb2dVertex
 10
319.8217021276596
 20
172.1860337579194
 30
0.0
  0
VERTEX
  5
204
330
201
100
AcDbEntity
  8
22
  6
Continuous
 62
     7
100
AcDbVertex
100
AcDb2dVertex
 10
319.6617021276596
 20
172.1860337579194
 30
0.0
  0
VERTEX
  5
205
330
201
100
AcDbEntity
  8
22
  6
Continuous
 62
     7
100
AcDbVertex
100
AcDb2dVertex
 10
317.8217021276596
 20
172.1860337579194
 30
0.0
  0
VERTEX
  5
206
330
201
100
AcDbEntity
  8
22
  6
Continuous
 62
     7
100
AcDbVertex
100
AcDb2dVertex
 10
316.3217021276596
 20
172.1860337579194
 30
0.0
  0
VERTEX
  5
207
330
201
100
AcDbEntity
  8
22
  6
Continuous
 62
     7
100
AcDbVertex
100
AcDb2dVertex
 10
316.3217021276596
 20
170.6860337579194
 30
0.0
  0
SEQEND
  5
202
330
201
100
AcDbEntity
  8
22
  6
Continuous
  0
POLYLINE
  5
208
330
1F
100
AcDbEntity
  8
22
  6
Continuous
 62
     7
100
AcDb2dPolyline
 66
     1
 10
0.0
 20
0.0
 30
0.0
  0
VERTEX
  5
20A
330
208
100
AcDbEntity
  8
22
  6
Continuous
 62
     7
100
AcDbVertex
100
AcDb2dVertex
 10
316.3217021276596
 20
236.5860337579193
 30
0.0
  0
VERTEX
  5
20B
330
208
100
AcDbEntity
  8
22
  6
Continuous
 62
     7
100
AcDbVertex
100
AcDb2dVertex
 10
316.3217021276596
 20
228.5860337579193
 30
0.0
  0
VERTEX
  5
20C
330
208
100
AcDbEntity
  8
22
  6
Continuous
 62
     7
100
AcDbVertex
100
AcDb2dVertex
 10
316.3217021276596
 20
227.0860337579193
 30
0.0
  0
VERTEX
  5
20D
330
208
100
AcDbEntity
  8
22
  6
Continuous
 62
     7
100
AcDbVertex
100
AcDb2dVertex
 10
317.8217021276596
 20
227.0860337579193
 30
0.0
  0
VERTEX
  5
20E
330
208
100
AcDbEntity
  8
22
  6
Continuous
 62
     7
100
AcDbVertex
100
AcDb2dVertex
 10
319.6617021276596
 20
227.0860337579193
 30
0.0
  0
VERTEX
  5
20F
330
208
100
AcDbEntity
  8
22
  6
Continuous
 62
     7
100
AcDbVertex
100
AcDb2dVertex
 10
319.8217021276596
 20
227.0860337579193
 30
0.0
  0
SEQEND
  5
209
330
208
100
AcDbEntity
  8
22
  6
Continuous
  0
ARC
  5
210
330
1F
100
AcDbEntity
  8
22
  6
Continuous
 62
     7
100
AcDbCircle
 10
319.8217032482748
 20
228.5860326373027
 30
0.0
 40
1.499998879383831
100
AcDbArc
 50
269.9999999999998
 51
0.0000428044336925
  0
POLYLINE
  5
211
330
1F
100
AcDbEntity
  8
22
  6
Continuous
 62
     7
100
AcDb2dPolyline
 66
     1
 10
0.0
 20
0.0
 30
0.0
  0
VERTEX
  5
213
330
211
100
AcDbEntity
  8
22
  6
Continuous
 62
     7
100
AcDbVertex
100
AcDb2dVertex
 10
321.3217021276596
 20
228.5860337579193
 30
0.0
  0
VERTEX
  5
214
330
211
100
AcDbEntity
  8
22
  6
Continuous
 62
     7
100
AcDbVertex
100
AcDb2dVertex
 10
321.3217021276596
 20
236.5860337579193
 30
0.0
  0
SEQEND
  5
212
330
211
100
AcDbEntity
  8
22
  6
Continuous
  0
ARC
  5
215
330
1F
100
AcDbEntity
  8
22
  6
Continuous
 62
     7
100
AcDbCircle
 10
319.8217032482699
 20
236.5860348785286
 30
0.0
 40
1.499998879390098
100
AcDbArc
 50
359.9999571958483
 51
89.99999999999992
  0
POLYLINE
  5
216
330
1F
100
AcDbEntity
  8
22
  6
Continuous
 62
     7
100
AcDb2dPolyline
 66
     1
 10
0.0
 20
0.0
 30
0.0
  0
VERTEX
  5
218
330
216
100
AcDbEntity
  8
22
  6
Continuous
 62
     7
100
AcDbVertex
100
AcDb2dVertex
 10
319.8217021276596
 20
238.0860337579193
 30
0.0
  0
VERTEX
  5
219
330
216
100
AcDbEntity
  8
22
  6
Continuous
 62
     7
100
AcDbVertex
100
AcDb2dVertex
 10
319.6617021276596
 20
238.0860337579193
 30
0.0
  0
VERTEX
  5
21A
330
216
100
AcDbEntity
  8
22
  6
Continuous
 62
     7
100
AcDbVertex
100
AcDb2dVertex
 10
317.8217021276596
 20
238.0860337579193
 30
0.0
  0
VERTEX
  5
21B
330
216
100
AcDbEntity
  8
22
  6
Continuous
 62
     7
100
AcDbVertex
100
AcDb2dVertex
 10
316.3217021276596
 20
238.0860337579193
 30
0.0
  0
VERTEX
  5
21C
330
216
100
AcDbEntity
  8
22
  6
Continuous
 62
     7
100
AcDbVertex
100
AcDb2dVertex
 10
316.3217021276596
 20
236.5860337579193
 30
0.0
  0
SEQEND
  5
217
330
216
100
AcDbEntity
  8
22
  6
Continuous
  0
LINE
  5
21D
330
1F
100
AcDbEntity
  8
22
  6
Continuous
 62
     7
100
AcDbLine
 10
305.1617021276596
 20
239.5860337579193
 30
0.0
 11
305.1617021276596
 21
238.0860337579193
 31
0.0
  0
LINE
  5
21E
330
1F
100
AcDbEntity
  8
22
  6
Continuous
 62
     7
100
AcDbLine
 10
305.1617021276596
 20
161.0860337579193
 30
0.0
 11
305.1617021276596
 21
159.5860337579193
 31
0.0
  0
VIEWPORT
  5
2A
330
1B
100
AcDbEntity
 67
     1
  8
0
100
AcDbViewport
 10
210.0
 20
148.5
 30
0.0
 40
420.0
 41
297.0
 68
     1
 69
     1
 12
210.0
 22
148.5
 13
0.0
 23
0.0
 14
0.5
 24
0.5
 15
0.5
 25
0.5
 16
0.0
 26
0.0
 36
1.0
 17
0.0
 27
0.0
 37
0.0
 42
50.0
 43
0.0
 44
0.0
 45
9.0
 50
0.0
 51
0.0
 72
   100
 90
    32800
  1

281
     0
 71
     1
 74
     0
110
0.0
120
0.0
130
0.0
111
1.0
121
0.0
131
0.0
112
0.0
122
1.0
132
0.0
 79
     0
146
0.0
170
     0
  0
ENDSEC
  0
SECTION
  2
OBJECTS
  0
DICTIONARY
  5
C
330
0
100
AcDbDictionary
281
     1
  3
ACAD_GROUP
350
D
  3
ACAD_LAYOUT
350
1A
  3
ACAD_MLINESTYLE
350
17
  3
ACAD_PLOTSETTINGS
350
19
  3
ACAD_PLOTSTYLENAME
350
E
  0
DICTIONARY
  5
D
102
{ACAD_REACTORS
330
C
102
}
330
C
100
AcDbDictionary
281
     1
  0
DICTIONARY
  5
1A
102
{ACAD_REACTORS
330
C
102
}
330
C
100
AcDbDictionary
281
     1
  3
Layout1
350
1E
  3
Layout2
350
26
  3
Model
350
22
  0
DICTIONARY
  5
17
102
{ACAD_REACTORS
330
C
102
}
330
C
100
AcDbDictionary
281
     1
  3
Standard
350
18
  0
DICTIONARY
  5
19
102
{ACAD_REACTORS
330
C
102
}
330
C
100
AcDbDictionary
281
     1
  0
ACDBDICTIONARYWDFLT
  5
E
102
{ACAD_REACTORS
330
C
102
}
330
C
100
AcDbDictionary
281
     1
  3
Normal
350
F
100
AcDbDictionaryWithDefault
340
F
  0
LAYOUT
  5
1E
102
{ACAD_REACTORS
330
1A
102
}
330
1A
100
AcDbPlotSettings
  1

  2

  4

  6

 40
0.0
 41
0.0
 42
0.0
 43
0.0
 44
0.0
 45
0.0
 46
0.0
 47
0.0
 48
0.0
 49
0.0
140
0.0
141
0.0
142
1.0
143
1.0
 70
   688
 72
     0
 73
     0
 74
     5
  7

 75
    16
 76
     0
 77
     2
 78
   300
147
1.0
148
0.0
149
0.0
100
AcDbLayout
  1
Layout1
 70
     1
 71
     1
 10
0.0
 20
0.0
 11
420.0
 21
297.0
 12
0.0
 22
0.0
 32
0.0
 14
0.0
 24
0.0
 34
0.0
 15
420.0
 25
297.0
 35
0.0
146
0.0
 13
0.0
 23
0.0
 33
0.0
 16
1.0
 26
0.0
 36
0.0
 17
0.0
 27
1.0
 37
0.0
 76
     0
330
1B
331
2A
  0
LAYOUT
  5
26
102
{ACAD_REACTORS
330
1A
102
}
330
1A
100
AcDbPlotSettings
  1

  2

  4

  6

 40
0.0
 41
0.0
 42
0.0
 43
0.0
 44
0.0
 45
0.0
 46
0.0
 47
0.0
 48
0.0
 49
0.0
140
0.0
141
0.0
142
1.0
143
1.0
 70
   688
 72
     0
 73
     0
 74
     5
  7

 75
    16
 76
     0
 77
     2
 78
   300
147
1.0
148
0.0
149
0.0
100
AcDbLayout
  1
Layout2
 70
     1
 71
     2
 10
0.0
 20
0.0
 11
0.0
 21
0.0
 12
0.0
 22
0.0
 32
0.0
 14
0.0
 24
0.0
 34
0.0
 15
0.0
 25
0.0
 35
0.0
146
0.0
 13
0.0
 23
0.0
 33
0.0
 16
1.0
 26
0.0
 36
0.0
 17
0.0
 27
1.0
 37
0.0
 76
     0
330
23
  0
LAYOUT
  5
22
102
{ACAD_REACTORS
330
1A
102
}
330
1A
100
AcDbPlotSettings
  1

  2

  4

  6

 40
0.0
 41
0.0
 42
0.0
 43
0.0
 44
0.0
 45
0.0
 46
0.0
 47
0.0
 48
0.0
 49
0.0
140
0.0
141
0.0
142
1.0
143
1.0
 70
  1712
 72
     0
 73
     0
 74
     0
  7

 75
     0
 76
     0
 77
     2
 78
   300
147
1.0
148
0.0
149
0.0
100
AcDbLayout
  1
Model
 70
     1
 71
     0
 10
0.0
 20
0.0
 11
420.0
 21
297.0
 12
0.0
 22
0.0
 32
0.0
 14
0.0
 24
0.0
 34
0.0
 15
420.0
 25
297.0
 35
0.0
146
0.0
 13
0.0
 23
0.0
 33
0.0
 16
1.0
 26
0.0
 36
0.0
 17
0.0
 27
1.0
 37
0.0
 76
     0
330
1F
  0
MLINESTYLE
  5
18
102
{ACAD_REACTORS
330
17
102
}
330
17
100
AcDbMlineStyle
  2
Standard
 70
     0
  3

 62
   256
 51
90.0
 52
90.0
 71
     2
 49
0.5
 62
   256
  6
BYLAYER
 49
-0.5
 62
   256
  6
BYLAYER
  0
ACDBPLACEHOLDER
  5
F
102
{ACAD_REACTORS
330
E
102
}
330
E
  0
ENDSEC
  0
EOF
